Ивановский Торрент трекер
Яндекс.Погода
 

[Цитировать]
HUNTER

Мужчина по вызову 2 / Deuce Bigalow European Gigolo
Страна: США
Жанр: Комедия
Год выпуска: 2005
Продолжительность: 01:14:38
Перевод: Профессиональный (дублированный)
Cубтитры: нет
Оригинальная аудиодорожка: нет
Режиссер: Майк Бигелоу / Mike Bigelow
В ролях: Роб Шнайдер, Эдди Гриффин, Джонни де Мол, Фредерико Дордей, Дана Мин Гудман, Чарлз Китинг, Йерун Краббе, Норм МакДоналд, Крис МакКэй, Миранда Рэйсон, Тиль Швайгер, Ваутэр Смит, Рэйчел Стивенс, Ханна Вербум
Описание: Дьюс отправляется по приглашению своего бывшего сутенера на отдых в Амстердам и в итоге понимает, что его вновь хотят вернуть в бизнес эскорт услуг для женщин. Не то, чтобы Дьюс был против — платят неплохо, но, во-первых, у него уже есть постоянная подружка, а во-вторых, у европейских женщин слишком бурная сексуальная фантазия…
Сэмпл: http://multi-up.com/953197
Тип релиза: HDTV 1080i
Контейнер: TS
Видео: AVC, 1920x1080 (16/9), 25.000 fps, 13.0 Mbps (0.251 bit/pixel)
Аудио: MP2, 48.0 KHz, 2 ch, 192 Kbps, CBR (Russian)

MediaInfo

Общее
Идентификатор : 3 (0x3)
Полное имя : K:\МОИ РАЗДАЧИ\Мужчина по вызову 2.TS
Формат : MPEG-TS
Размер файла : 7,40 Гбайт
Продолжительность : 1 ч. 14 м.
Режим общего битрейта : Переменный
Общий поток : 14,2 Мбит/сек
Видео
Идентификатор : 2141 (0x85D)
Идентификатор меню : 21004 (0x520C)
Формат : AVC
Формат/Информация : Advanced Video Codec
Профиль формата : Main@L4.0
Параметр CABAC формата : Да
Параметр ReFrames формата : 3 кадра
Идентификатор кодека : 27
Продолжительность : 1 ч. 14 м.
Битрейт : 13,3 Мбит/сек
Ширина : 1920 пикселей
Высота : 1080 пикселей
Соотношение сторон : 16:9
Частота кадров : 25,000 кадров/сек
Стандарт вещания : Component
Цветовое пространство : YUV
Субдискретизация насыщенности : 4:2:0
Битовая глубина : 8 бит
Тип развёртки : Чересстрочная
Порядок развёртки : Верхнее поле первое
Бит/(Пиксели*Кадры) : 0.257
Размер потока : 6,94 Гбайт (94%)
Основные цвета : BT.709
Характеристики трансфера : BT.709
Коэффициенты матрицы : BT.709
Аудио
Идентификатор : 2142 (0x85E)
Идентификатор меню : 21004 (0x520C)
Формат : MPEG Audio
Версия формата : Version 1
Профиль формата : Layer 2
Идентификатор кодека : 4
Продолжительность : 1 ч. 14 м.
Вид битрейта : Постоянный
Битрейт : 192 Кбит/сек
Каналы : 2 канала
Частота : 48,0 КГц
Метод сжатия : С потерями
Задержка видео : 78 мс.
Размер потока : 102 Мбайт (1%)
Язык : Russian

Скриншоты




Показать сообщения:    

Текущее время: 11-Дек 02:18

Часовой пояс: UTC ± 0


Вы не можете начинать темы
Вы не можете отвечать на сообщения
Вы не можете редактировать свои сообщения
Вы не можете удалять свои сообщения
Вы не можете голосовать в опросах
Вы не можете прикреплять файлы к сообщениям
Вы не можете скачивать файлы

!ВНИМАНИЕ!
Сайт не предоставляет электронные версии произведений, а занимается лишь коллекционированием и каталогизацией ссылок, присылаемых и публикуемых на форуме нашими читателями. Если вы являетесь правообладателем какого-либо представленного материала и не желаете, чтобы ссылка на него находилась в нашем каталоге, свяжитесь с нами, и мы незамедлительно удалим ее. Файлы для обмена на трекере предоставлены пользователями сайта, и администрация не несет ответственности за их содержание. Просьба не заливать файлы, защищенные авторскими правами, а также файлы нелегального содержания!