Ивановский Торрент трекер
Яндекс.Погода
 

[Цитировать]
HUNTER


Мужчина и женщина. Психология семейных отношений.-Год выпуска: 2009
Страна: Россия
Сайт производителя: отсутствуeт
Тематика: психология
Тип материала: Обучающее видео
Продолжительность: 01:51:10
Автор: Малышева Е. М.
Язык: Русский
Субтитры: отсутствуют-Описание: Лекция профессора Малышева Е. М. из Новосибирска на тему «Мужчина и Женщина. Психология Семейных Отношений».
Профессор Малышев очень легко и просто объясняет и показывает на примерах (так нам всем хорошо знакомым) и доносит свое понимание отношений между мужчиной и женщиной, и в результате Вы вскоре (если, конечно, внимательно слушаете) очень четко начинаете осознавать, куда уходит любовь, почему угасает страсть и почему через некоторое время совместной жизни начинаются ссоры, раздоры, непонимание и неудовлетвореность, а мужчины превращаются в трудоголиков, алкоголиков или находят себе «приключения» на стороне?
-Качество: SATRip
Формат: AVI
Видео кодек: XviD
Аудио кодек:
Видео: 320x240 (1.33:1), 25 fps, XviD build 9 ~567 kbps avg, 0.30 bit/pixel
Аудио: 44.100 kHz, MPEG Layer 3, 1 ch, ~64.00 kbps avg-

Доп. информация

Если Вам дороги отношения с Вашим партнером, если Вы хотите воссоздать прежнюю любовь, если Вам важно здоровье Ваших детей (как физическое, так моральное и эмоциональное) или если Вы хотите войти в следующие отношения «раз и навсегда», я прошу Вас найти для себя, для Ваших детей, для счастья Вашей семьи, своего собственного счастья этот один час и 51 минуту и я уверен, Вы так же как и я найдете в этой лекции все ответы на все вопросы, касающиеся отношений мужчины и женщины.

MediaInfo

Код: copyText_writeLink('this.parentNode.parentNode.nextSibling.nextSibling'); Общее
Полное имя : D:\обуч\mugchina_i_genshina_otnosheniya.avi
Формат : AVI
Формат/Информация : Audio Video Interleave
Размер файла : 510 Мбайт
Продолжительность : 1 ч. 51 м.
Общий поток : 642 Кбит/сек
Библиотека кодирования : VirtualDub build 16297/release
Видео
Идентификатор : 0
Формат : MPEG-4 Visual
Профиль формата : Simple@L3
Параметр BVOP формата : Нет
Параметр QPel формата : Нет
Параметр GMC формата : Без точки перехода
Параметр матрицы формата : Default (H.263)
Идентификатор кодека : XVID
Идентификатор кодека/Подсказка : XviD
Продолжительность : 1 ч. 51 м.
Битрейт : 568 Кбит/сек
Ширина : 320 пикселей
Высота : 240 пикселей
Соотношение сторон : 4:3
Частота кадров : 25,000 кадров/сек
Цветовое пространство : YUV
Субдискретизация насыщенности : 4:2:0
Битовая глубина : 8 бит
Тип развёртки : Прогрессивная
Метод сжатия : С потерями
Бит/(Пиксели*Кадры) : 0.296
Размер потока : 452 Мбайт (89%)
Библиотека кодирования : XviD 0.0.09 (UTC 2003-03-25)
Аудио
Идентификатор : 1
Формат : MPEG Audio
Версия формата : Version 1
Профиль формата : Layer 3
Идентификатор кодека : 55
Идентификатор кодека/Подсказка : MP3
Продолжительность : 1 ч. 51 м.
Вид битрейта : Постоянный
Битрейт : 64,0 Кбит/сек
Каналы : 1 канал
Частота : 44,1 КГц
Метод сжатия : С потерями
Размер потока : 50,9 Мбайт (10%)
Выравнивание : Разделение по промежуткам
Продолжительность промежутка : 40 мс. (1,00 видеокадр)
Время предзагрузки промежутка : 500 мс.

Скриншоты

-
Показать сообщения:    

Текущее время: 20-Сен 00:56

Часовой пояс: UTC - 1


Вы не можете начинать темы
Вы не можете отвечать на сообщения
Вы не можете редактировать свои сообщения
Вы не можете удалять свои сообщения
Вы не можете голосовать в опросах
Вы не можете прикреплять файлы к сообщениям
Вы не можете скачивать файлы

!ВНИМАНИЕ!
Сайт не предоставляет электронные версии произведений, а занимается лишь коллекционированием и каталогизацией ссылок, присылаемых и публикуемых на форуме нашими читателями. Если вы являетесь правообладателем какого-либо представленного материала и не желаете, чтобы ссылка на него находилась в нашем каталоге, свяжитесь с нами, и мы незамедлительно удалим ее. Файлы для обмена на трекере предоставлены пользователями сайта, и администрация не несет ответственности за их содержание. Просьба не заливать файлы, защищенные авторскими правами, а также файлы нелегального содержания!