Важное объявление!
У Нас Все раздачи мультитрекерные, при нуле пиров в релизах, можете смело вставать на закачку!
 
Автор Сообщение

HUNTER

Стаж:
4 года 8 месяцев
Сообщений:
62034

Репутация: 101

[+] [-]
Вне форума [Профиль] [ЛС]

Мудрость толпы / серии 1-2 из 2
-Название: Мудрость толпы
Год выпуска: 2013
Страна: Россия, Израиль
Производство: Ari Films
Жанр: телепередача
Продолжительность: 02:34:37
Перевод: оригинал (русский язык)
Субтитры: нет-В ролях: М. Лайтман, Д. Самсонников, А. Ташаев, Д. Половец
Режиссёр: Семён Винокур-Описание: В последнее время мы говорим о том, что движущей силой эволюции является раскрытие глобальной сети между нами, вообще в человечестве. И в последние годы это раскрытие проявляется в интересной форме, которая называется «мудрость толпы», когда люди соединяются в сообществе не для того, чтобы просто пообщаться, а для того чтобы произвести какой-то определённый конкретный продукт, т.е. это - реальное соединение, которое что-то производит, причем результат этого соединения - по уровню всегда больше, чем просто сумма частностей. Что же такое коллективный разум, мудрость толпы? Почему разум группы больше, чем разум индивидуума?-Качество: WEB-DLRip
Формат: MP4
Видеокодек: MPEG-4 AVC (H.264)
Аудиокодек: ACC
Видео: 720 x 400, 25,000 fps, 450 Kbps, 0.063 bit/pixel
Аудио: 44,1 kHz, 1 ch, 32 kb/s- Аудиоверсия телепередачи Мудрость толпы / выпуски 1-2 из 2

Скриншоты

MediaInfo


ОбщееПолное имя : teleprogramma.Mudrost_tolpy.2013.WEB-DLRip.Rus.Mp4\2013-05-06_Мудрость_толпы_01.mp4Формат : MPEG-4Профиль формата : Base MediaИдентификатор кодека : isomРазмер файла : 242 МбайтПродолжительность : 1 ч. 9 м.Режим общего битрейта : ПеременныйОбщий поток : 488 Кбит/секПрограмма кодирования : Lavf52.93.0
ВидеоИдентификатор : 1Формат : AVCФормат/Информация : Advanced Video CodecПрофиль формата : Baseline@L3.0Параметр CABAC формата : НетПараметр ReFrames формата : 1 кадрИдентификатор кодека : avc1Идентификатор кодека/Информация : Advanced Video CodingПродолжительность : 1 ч. 9 м.Битрейт : 450 Кбит/секШирина : 720 пикселейВысота : 400 пикселейСоотношение сторон : 16:9Режим частоты кадров : ПостоянныйЧастота кадров : 25,000 кадров/секЦветовое пространство : YUVСубдискретизация насыщенности : 4:2:0Битовая глубина : 8 битТип развёртки : ПрогрессивнаяБит/(Пиксели*Кадры) : 0.063Размер потока : 224 Мбайт (93%)Библиотека кодирования : x264 core 112
АудиоИдентификатор : 2Формат : AACФормат/Информация : Advanced Audio CodecПрофиль формата : LCИдентификатор кодека : 40Продолжительность : 1 ч. 9 м.Вид битрейта : ПеременныйБитрейт : 32,0 Кбит/секКаналы : 2 каналаOriginal Channel count : 1 каналРасположение каналов : Front: CЧастота : 44,1 КГцМетод сжатия : С потерямиРазмер потока : 15,9 Мбайт (7%)

Список серий


01. 2013-05-06_Мудрость_толпы_01 - (69:29)
02. 2013-05-14_Мудрость_толпы_02 - (85:08)

_________________
Показать сообщения:    

Текущее время: Сегодня 02:57

Часовой пояс: GMT



Вы не можете начинать темы
Вы не можете отвечать на сообщения
Вы не можете редактировать свои сообщения
Вы не можете удалять свои сообщения
Вы не можете голосовать в опросах
Вы не можете прикреплять файлы к сообщениям
Вы не можете скачивать файлы
Наши партнеры: интернет магазин Ивановского трикотажа textilla.ru