Важное объявление!
У Нас Все раздачи мультитрекерные, при нуле пиров в релизах, можете смело вставать на закачку!
 
Автор Сообщение

HUNTER

Стаж:
4 года 8 месяцев
Сообщений:
62035

Репутация: 101

[+] [-]
Вне форума [Профиль] [ЛС]

Мудрость крокодилов / The Wisdom of Crocodiles
Страна: Великобритания
Студия: Zenith Entertainment, Goldwyn Films, Arts Council of England, Entertainment Film Distributors Ltd.
Жанр: триллер, мелодрама, криминал, детектив
Год выпуска: 1998
Продолжительность: 01:39:15
Перевод: Профессиональный (двухголосый закадровый) [DVD R5]
Cубтитры: английские, SDH
Оригинальная аудиодорожка: английский
Режиссер: По-Чин Леонг / Po-Chih Leong
В ролях: Джуд Лоу, Элина Ловенсон, Тимоти Сполл, Джек Девенпорт, Колин Сэлмон, Керри Фокс, Стюарт Боуман, С.Дж. Десембер, Анастасия Хилл, Джозеф О’Конор, Эшли Артус
Описание: Загадочному и неотразимому Стивену нужна кровь молодых женщин, чтобы жить. В ней он ищет сущность любви, без этого ингредиента он обречен на медленную гибель.
Он — современный вампир в бесконечных поисках своей единственной возлюбленной. Юные красавицы бессильны перед его чарами, но Стивену нужна та, кто будет любить его беззаветно и страстно.
Когда в жизни Стивена появляется Анна, его чувства впервые находят ответ в ее трепетном сердце, но Анна еще не знает, что своим избранницам в обмен на любовь Стивен может предложить лишь жестокую смерть…- -Тип релиза: BDRip 720p (Исходник: Blu-ray / 1080p / AVC / 23,976 fps / 22000 kbps / DTS-HD MA / 2.0 ch / 24-bit / 1820 kbps)
Контейнер: MKV
Видео: MPEG-4 AVC Video, 1280x692 / 1,85:1 (16:9) / 9770 kbps / 23,976 fps / High@L4.1 / 2pass
Аудио 1: Russian: AC3 2.0 ch, 192 kbps, 48 kHz
Аудио 2: English: DTS, 2.0 ch, 24 bit, 1509 kbps, 48 kHz
Формат субтитров: softsub (SRT)
Главы:

х264 Log

x264 [info]: frame I:938 Avg QP:15.79 size:118020
x264 [info]: frame P:26006 Avg QP:17.21 size: 64703
x264 [info]: frame B:115840 Avg QP:18.84 size: 47272
x264 [info]: consecutive B-frames: 1.4% 1.9% 5.2% 9.9% 10.7% 41.9% 7.6% 1.2% 8.0% 1.0% 4.5% 4.7% 2.0%

MediaInfo

Общее
Уникальный идентификатор : 208619807522573216480549966456824347501 (0x9CF2B6A35940D8178FBB971200E53B6D)
Полное имя : J:\Мудрость крокодилов 1998.BDRip.720p.ПД.Eng.mkv
Формат : Matroska
Версия формата : Version 4 / Version 2
Размер файла : 7,95 Гбайт
Продолжительность : 1 ч. 39 м.
Общий поток : 11,5 Мбит/сек
Название фильма : The Wisdom of Crocodiles (1998)
Дата кодирования : UTC 2016-03-29 17:28:29
Программа кодирования : mkvmerge v8.8.0 ('Wind at my back') 32bit
Библиотека кодирования : libebml v1.3.3 + libmatroska v1.4.4
Видео
Идентификатор : 1
Формат : AVC
Формат/Информация : Advanced Video Codec
Профиль формата : High@L4.1
Параметр CABAC формата : Да
Параметр ReFrames формата : 9 кадров
Идентификатор кодека : V_MPEG4/ISO/AVC
Продолжительность : 1 ч. 39 м.
Битрейт : 9770 Кбит/сек
Ширина : 1280 пикселей
Высота : 692 пикселя
Соотношение сторон : 1,85:1
Режим частоты кадров : Постоянный
Частота кадров : 23,976 (24000/1001) кадра/сек
Цветовое пространство : YUV
Субдискретизация насыщенности : 4:2:0
Битовая глубина : 8 бит
Тип развёртки : Прогрессивная
Бит/(Пиксели*Кадры) : 0.460
Размер потока : 6,61 Гбайт (83%)
Библиотека кодирования : x264 core 148 r2665 a01e339
Настройки программы : cabac=1 / ref=9 / deblock=1:-3:-3 / analyse=0x3:0x133 / me=umh / subme=10 / psy=1 / psy_rd=0.95:0.00 / mixed_ref=1 / me_range=32 / chroma_me=1 / trellis=2 / 8x8dct=1 / cqm=0 / deadzone=21,11 / fast_pskip=0 / chroma_qp_offset=-2 / threads=6 / lookahead_threads=1 / sliced_threads=0 / nr=0 / decimate=1 / interlaced=0 / bluray_compat=0 / constrained_intra=0 / bframes=12 / b_pyramid=2 / b_adapt-С· b_bias=0 / direct=3 / weightb=1 / open_gop=0 / weightp=2 / keyint=240 / keyint_min=23 / scenecut=40 / intra_refresh=0 / rc_lookahead=80 / rc=2pass / mbtree=0 / bitrate=9770 / ratetol=1.0 / qcomp=0.60 / qpmin=4 / qpmax=64 / qpstep=4 / cplxblur=20.0 / qblur=0.5 / vbv_maxrate=50000 / vbv_bufsize=62500 / nal_hrd=none / filler=0 / ip_ratio=1.35 / pb_ratio=1.25 / aq=1:0.85
Язык : English
Default : Да
Forced : Нет
Аудио #1
Идентификатор : 2
Формат : AC-3
Формат/Информация : Audio Coding 3
Расширение режима : CM (complete main)
Параметр Endianness формата : Big
Идентификатор кодека : A_AC3
Продолжительность : 1 ч. 39 м.
Вид битрейта : Постоянный
Битрейт : 192 Кбит/сек
Каналы : 2 канала
Расположение каналов : Front: L R
Частота : 48,0 КГц
Частота кадров : 31,250 кадров/сек (1536 spf)
Метод сжатия : С потерями
Размер потока : 136 Мбайт (2%)
Заголовок : AC3 2.0ch 192kbps - двухголосый (DVD.R5)
Язык : Russian
Default : Да
Forced : Нет
Аудио #2
Идентификатор : 3
Формат : DTS
Формат/Информация : Digital Theater Systems
Режим : 16
Параметр Endianness формата : Big
Идентификатор кодека : A_DTS
Продолжительность : 1 ч. 39 м.
Вид битрейта : Постоянный
Битрейт : 1509 Кбит/сек
Каналы : 2 канала
Расположение каналов : Front: L R
Частота : 48,0 КГц
Частота кадров : 93,750 кадра/сек (512 spf)
Битовая глубина : 24 бит
Метод сжатия : С потерями
Размер потока : 1,05 Гбайт (13%)
Заголовок : DTS 2.0ch 24-bit 1509kbps - original
Язык : English
Default : Нет
Forced : Нет
Текст #1
Идентификатор : 4
Формат : UTF-8
Идентификатор кодека : S_TEXT/UTF8
Идентификатор кодека/Информация : UTF-8 Plain Text
Язык : English
Default : Нет
Forced : Нет
Текст #2
Идентификатор : 5
Формат : UTF-8
Идентификатор кодека : S_TEXT/UTF8
Идентификатор кодека/Информация : UTF-8 Plain Text
Язык : English
Default : Нет
Forced : Нет
Текст #3
Идентификатор : 6
Формат : UTF-8
Идентификатор кодека : S_TEXT/UTF8
Идентификатор кодека/Информация : UTF-8 Plain Text
Заголовок : SDH
Язык : English
Default : Нет
Forced : Нет
Меню
00:00:00.000 : en: 00:00:00
00:06:26.428 : en: 00:06:26
00:15:23.923 : en: 00:15:23
00:23:16.103 : en: 00:23:16
00:31:44.861 : en: 00:31:44
00:40:18.249 : en: 00:40:18
00:51:14.780 : en: 00:51:14
01:01:02.701 : en: 01:01:02
01:12:04.946 : en: 01:12:04
01:15:31.318 : en: 01:15:31
01:25:12.107 : en: 01:25:12
01:35:46.449 : en: 01:35:46

_________________
Показать сообщения:    

Текущее время: Сегодня 18:51

Часовой пояс: GMT



Вы не можете начинать темы
Вы не можете отвечать на сообщения
Вы не можете редактировать свои сообщения
Вы не можете удалять свои сообщения
Вы не можете голосовать в опросах
Вы не можете прикреплять файлы к сообщениям
Вы не можете скачивать файлы
Наши партнеры: интернет магазин Ивановского трикотажа textilla.ru