Важное объявление!
У Нас Все раздачи мультитрекерные, при нуле пиров в релизах, можете смело вставать на закачку!
Статистика раздачи
Размер:     |    Зарегистрирован:     |    Скачан:     |   
Нет
 
     
 
 
Автор Сообщение

Shalun

Стаж:
5 лет
Сообщений:
802

Репутация: 123

[+] [-]
Вне форума [Профиль] [ЛС]

-Мрачные небеса / Dark Skies
«Если тебя выбрали, уже не скрыться»
-
Страна: США
Жанр: Ужасы, фантастика, триллер
Год выпуска: 2013
Продолжительность: 01:37:08
Перевод: Профессиональный (полное дублирование) [Лицензия]
Cубтитры: Нет
Режиссер: Скотт Чарльз Стюарт / Scott Charles Stewart
В ролях: Кери Расселл, Джош Хэмилтон, Дакота Гойо, Дж.К. Симмонс, Энни Турман, Майкл Патрик МакГилл, Тревор Ст. Джон, Аливия Элин Линд, Л. Бенет, Джейк Уошберн
Описание: Странные вещи начинают происходить в обычной семье жителей пригорода. Электронные приборы без причины отключаются. Дети повсюду находят мертвых птиц. В их дом проникают инопланетные существа, которые по какой то причине следят за семьей. Чем больше странных, мистических вещей начинает происходить в доме, тем быстрее становится ясно: загадочные существа, прилетевшие с другой планеты в поисках новой жизни, охотятся на детей, живущих там.
|
Сэмпл: http://multi-up.com/863768
Качество: HDRip-AVC [BDRip 1080p]
Формат: MKV
Видео кодек: AVC
Аудио кодек: АС3
Видео: 1692 Кбит/сек, 1032*430 (2,40:1), в 23,976 кадр/сек, AVC
Аудио: Russian, 448 Кбит/сек, 48,0 КГц, 16 бит, 6 канала(ов), AC-3

MediaInfo

Общее
Уникальный идентификатор : 202033638710899662670252201306489086309 (0x97FE4371E5AF1147B2A403BBA1A3E165)
Полное имя : J:\2\Mrachnye_nebesa_2013_HDRip_AVC_Dub.mkv
Формат : Matroska
Размер файла : 1,45 Гбайт
Продолжительность : 1 ч. 37 м.
Общий поток : 2141 Кбит/сек
Название фильма : Dark Skies 2013 (Rip by S.T.A.L.K.E.R.2)
Дата кодирования : UTC 2013-05-09 11:31:56
Программа кодирования : mkvmerge v6.1.0 ('Old Devil') built on Mar 2 2013 14:32:37
Библиотека кодирования : libebml v1.3.0 + libmatroska v1.4.0
Видео
Идентификатор : 1
Формат : AVC
Формат/Информация : Advanced Video Codec
Профиль формата : High@L4.1
Параметр CABAC формата : Да
Параметр ReFrames формата : 9 кадры
Идентификатор кодека : V_MPEG4/ISO/AVC
Продолжительность : 1 ч. 37 м.
Битрейт : 1692 Кбит/сек
Ширина : 1032 пикс.
Высота : 430 пикс.
Соотношение сторон : 2,40:1
Частота кадров : 23,976 кадр/сек
Цветовое пространство : YUV
Подвыборка цветности : 4:2:0
Битовая глубина : 8 бит
Тип развёртки : Прогрессивная
Бит/(Пиксели*Кадры) : 0.159
Размер потока : 1,12 Гбайт (77%)
Библиотека кодирования : x264 core 129 r2230 1cffe9f
Настройки программы : cabac=1 / ref=9 / deblock=1:-3:-3 / analyse=0x3:0x113 / me=umh / subme=11 / psy=1 / psy_rd=1.00:0.15 / mixed_ref=1 / me_range=32 / chroma_me=1 / trellis=2 / 8x8dct=1 / cqm=0 / deadzone=21,11 / fast_pskip=0 / chroma_qp_offset=-3 / threads=12 / lookahead_threads=2 / sliced_threads=0 / nr=0 / decimate=0 / interlaced=0 / bluray_compat=0 / constrained_intra=0 / bframes=10 / b_pyramid=2 / b_adapt=2 / b_bias=0 / direct=1 / weightb=1 / open_gop=0 / weightp=2 / keyint=240 / keyint_min=23 / scenecut=40 / intra_refresh=0 / rc_lookahead=60 / rc=2pass / mbtree=1 / bitrate=1692 / ratetol=1.0 / qcomp=0.60 / qpmin=10 / qpmax=51 / qpstep=4 / cplxblur=20.0 / qblur=0.5 / vbv_maxrate=50000 / vbv_bufsize=50000 / nal_hrd=none / ip_ratio=1.40 / aq=1:1.00
Язык : English
Аудио
Идентификатор : 2
Формат : AC-3
Формат/Информация : Audio Coding 3
Расширение режима : CM (complete main)
Идентификатор кодека : A_AC3
Продолжительность : 1 ч. 37 м.
Вид битрейта : Постоянный
Битрейт : 448 Кбит/сек
Канал(ы) : 6 канала(ов)
Расположение каналов : Front: L C R, Side: L R, LFE
Частота : 48,0 КГц
Битовая глубина : 16 бит
Метод сжатия : С потерями
Размер потока : 311 Мбайт (21%)
Заголовок : DD 5.1 @ 448 kbps - Dub, R5
Язык : Russian

Скриншоты


_________________
Показать сообщения:    

Текущее время: Сегодня 08:51

Часовой пояс: GMT



Вы не можете начинать темы
Вы не можете отвечать на сообщения
Вы не можете редактировать свои сообщения
Вы не можете удалять свои сообщения
Вы не можете голосовать в опросах
Вы не можете прикреплять файлы к сообщениям
Вы не можете скачивать файлы