Моя фамилия Шилов (Андрей Элинсон) [2013, Россия, боевик, детектив, криминал, HDTV 1080i] :: Ивановский Торрент трекер
Важное объявление!
У Нас Все раздачи мультитрекерные, при нуле пиров в релизах, можете смело вставать на закачку!
Статистика раздачи
Размер:     |    Зарегистрирован:     |    Скачан:     |   
Нет
 
     
 
 
Автор Сообщение

HUNTER

Стаж:
4 года 11 месяцев
Сообщений:
66112

Репутация: 101

[+] [-]
Вне форума [Профиль] [ЛС]

Моя фамилия Шилов- -Страна: Россия
Жанр: боевик, детектив, криминал
Год выпуска: 2013
Производство: «Форвард-фильм, Студия Панорама»
Продолжительность: 01:31:59
Оригинальная аудиодорожка: русский
Cубтитры: нет-Режиссер: Андрей Элинсон-В ролях:
Александр Устюгов, Сергей Перегудов, Мария Синяева, Геннадий Алимпиев, Алексей Федотов, Светлана Смирнова-Описание:
После увольнения из ГУВД герой "Ментовских войн" полковник Роман Шилов оказался не у дел и решил использовать внезапно появившееся свободное время для того, чтобы уладить все вопросы с личной жизнью.
Но встрече с девушкой, с которой он давно мечтал объясниться, помешало известие об исчезновении давнего знакомого Романа - Михаила Краснова, показания которого когда-то помогли отправить за решетку опасного убийцу.
Шилов отправился в провинциальный городок выручать старого приятеля.-Возраст: 16+-Качество: HDTV (1080i)
Формат: TS
Видео кодек: AVC
Аудио кодек: MPEG Audio 2

Видео: AVC, 1920 х 1080 (16:9), 25,000 кадр/сек, 7 576 Кбит/сек, 0.146 bit/pixel
Аудио: MPEG Audio 2, 48000 Hz, 192 Kbps, 2 канала
-

MediaInfo

General
ID : 1 (0x1)
Complete name : D:\Раздачи\Моя фамилия Шилов HDTV (1080i)\Моя фамилия Шилов HDTV (1080i).ts
Format : MPEG-TS
File size : 5.21 GiB
Duration : 1h 31mn
Overall bit rate mode : Variable
Overall bit rate : 8 174 Kbps
Video
ID : 500 (0x1F4)
Menu ID : 1 (0x1)
Format : AVC
Format/Info : Advanced Video Codec
Format profile : High@L4
Format settings, CABAC : Yes
Format settings, ReFrames : 3 frames
Codec ID : 27
Duration : 1h 31mn
Bit rate mode : Variable
Bit rate : 7 576 Kbps
Maximum bit rate : 6 500 Kbps
Width : 1 920 pixels
Height : 1 080 pixels
Display aspect ratio : 16:9
Frame rate : 25.000 fps
Standard : PAL
Color space : YUV
Chroma subsampling : 4:2:0
Bit depth : 8 bits
Scan type : Interlaced
Scan type, store method : Separated fields
Scan order : Top Field First
Bits/(Pixel*Frame) : 0.146
Stream size : 4.83 GiB (93%)
Color range : Limited
Color primaries : BT.709
Transfer characteristics : BT.709
Matrix coefficients : BT.709
Audio
ID : 301 (0x12D)
Menu ID : 1 (0x1)
Format : MPEG Audio
Format version : Version 1
Format profile : Layer 2
Codec ID : 3
Duration : 1h 31mn
Bit rate mode : Constant
Bit rate : 192 Kbps
Channel(s) : 2 channels
Sampling rate : 48.0 KHz
Compression mode : Lossy
Stream size : 125 MiB (2%)
Language : Russian

Скриншоты


-Раздаю до первых 5-ти скачавших, на раздачи не возвращаюсь...-

_________________
Показать сообщения:    

Текущее время: Сегодня 19:03

Часовой пояс: GMT



Вы не можете начинать темы
Вы не можете отвечать на сообщения
Вы не можете редактировать свои сообщения
Вы не можете удалять свои сообщения
Вы не можете голосовать в опросах
Вы не можете прикреплять файлы к сообщениям
Вы не можете скачивать файлы