Важное объявление!
У Нас Все раздачи мультитрекерные, при нуле пиров в релизах, можете смело вставать на закачку!
Статистика раздачи
Размер:     |    Зарегистрирован:     |    Скачан:     |   
Нет
 
     
 
 
Автор Сообщение

HUNTER

Стаж:
5 лет 1 месяц
Сообщений:
68439

Репутация: 101

[+] [-]
Вне форума [Профиль] [ЛС]

Моя сторона горы / My Side of the Mountain
Страна: США
Жанр: приключения, семейный
Год выпуска: 1969
Продолжительность: 01:35:52
Перевод: Профессиональный (многоголосый закадровый)
Cубтитры:нет
Оригинальная аудиодорожка: нет
Режиссер: James B. Clark / Джеймс Б. Кларк
В ролях: Тед Экклс / Ted Eccles, Теодор Байкель / Theodore Bikel, Туди Уиггинс / Tudi Wiggins
Описание: 13-летний мальчик, Сэм Грибли, под впечатлением от книги Генри Торо Уолден, или Жизнь в лесу, и из-за обиды на непонимание со стороны родителей решает, как Торо, покинуть цивилизацию и исчезнуть на год, уйти в горы Св. Лаврентия в Канаде, чтобы жить там в одиночестве, изучать природу, самостоятельно заботиться о себе - готовить пищу, сшить одежду, построить жилье, а также, заниматься экспериментами с водорослями.
Это ему удается - проведя несколько месяцев в горах, мальчик добывает птенца сокола, которого он учит охотиться, находит новых друзей и взрослеет, осознавая, какую боль причинил тем, кого он оставил дома....
Доп. информация:
Фильм является экранизацией одноименной книги Джин К. Джордж, американской писательницы, автора более сотни детских приключенческих книг, но неизвестной в России.
Режиссер Джеймс Б. Кларк известен также своими фильмами о животных:
Фландрийский пес 1959, Флиппер 1963 , Мисти 1961, Остров голубых дельфинов 1964,
Черный Красавчик 1971, несколько фильмов о Лесси (1954 - 1974)
Запись с канала Paramount Channel HD RUS (БОЛЬШОЕ СПАСИБО slavikevro!!!)
Сэмпл: https://yadi.sk/d/FNYeo5XOXkuEE
Альтернативные раздачи:
Моя сторона горы 1969 (DVDRip) avi - 1,58 Gb
Качество видео: HDTV 1080i
Формат видео: TS
Видео: 4 439 Кбит/сек, MPEG4 Video (H264) 1920x1080 (16:9) 25 fps
Аудио: MPEG Audio 48000Hz stereo Layer2, 192kbps, 2 channels (MVO)

MediaInfo

General
ID : 1 (0x1)
Complete name : Моя сторона горы (1969) - Paramount Channel HD.ts
Format : MPEG-TS
File size : 3.26 GiB
Duration : 1h 35mn
Overall bit rate mode : Variable
Overall bit rate : 4 874 Kbps
Video #69
ID : 69 (0x45)
Menu ID : 1 (0x1)
Format : AVC
Format/Info : Advanced Video Codec
Format profile : High@L4.0
Format settings, CABAC : Yes
Format settings, ReFrames : 4 frames
Codec ID : 27
Duration : 1h 35mn
Bit rate mode : Variable
Bit rate : 4 439 Kbps
Maximum bit rate : 5 000 Kbps
Width : 1 920 pixels
Height : 1 080 pixels
Display aspect ratio : 16:9
Frame rate mode : Variable
Color space : YUV
Chroma subsampling : 4:2:0
Bit depth : 8 bits
Scan type : MBAFF
Stream size : 2.97 GiB (91%)
Audio #68
ID : 68 (0x44)
Menu ID : 1 (0x1)
Format : MPEG Audio
Format version : Version 1
Format profile : Layer 2
Codec ID : 3
Duration : 1h 35mn
Bit rate mode : Constant
Bit rate : 192 Kbps
Channel(s) : 2 channels
Sampling rate : 48.0 KHz
Compression mode : Lossy
Stream size : 132 MiB (4%)
Language : Russian

Скриншоты

cover



_________________
Показать сообщения:    

Текущее время: Сегодня 00:28

Часовой пояс: GMT



Вы не можете начинать темы
Вы не можете отвечать на сообщения
Вы не можете редактировать свои сообщения
Вы не можете удалять свои сообщения
Вы не можете голосовать в опросах
Вы не можете прикреплять файлы к сообщениям
Вы не можете скачивать файлы