Важное объявление!
У Нас Все раздачи мультитрекерные, при нуле пиров в релизах, можете смело вставать на закачку!
Статистика раздачи
Размер:     |    Зарегистрирован:     |    Скачан:     |   
Нет
 
     
 
 
Автор Сообщение

HUNTER

Стаж:
5 лет
Сообщений:
67945

Репутация: 101

[+] [-]
Вне форума [Профиль] [ЛС]

Моя любимая мумия / Dummie de Mummie
Страна: Нидерланды
Жанр: комедия, приключения, семейный
Год выпуска: 2014
Продолжительность: 01:16:30
Перевод: Одноголосый закадровый
Cубтитры: нидерландские, английские
Оригинальная аудиодорожка: голландский
Режиссер: Пим ван Хёве / Pim van Hoeve

В ролях: Юлиан Рас / Julian Ras (Клуб Санта-Клауса и Тайны доктора игрушек), Дженнифер Хоффман / Jennifer Hoffman, Тон Кас / Ton Kas, Рёланд Фернхут / Roeland Fernhout, Майк Виртс / Mike Weerts, Яхья Гайер / Yahya Gaier, Берт Хана / Bert Hana
Описание: В тихой деревушке, где никогда ничего особенного не происходило, мальчик однажды застает в своей комнате мумию. Тут-то и начинается удивительная дружба, которая дает мальчику гораздо больше, нежели дружба с обыкновенными людьми.
Сборка Нордера
Сэмпл: http://multi-up.com/1073610
Качество видео: DVD5_Custom
Формат видео: DVD Video
Видео: PAL 16:9 (720x576) VBR
Аудио: Русский (Dolby AC3, 2/0 (L,R) ch, 192 kbps)
Аудио 2: Недерландский (Dolby AC3, 3/2 (L,C,R,SL,SR)+LFE ch, 448 kbps)
Доп. информация: Использованный софт
PGCDemux (извлечение).
BeSweet, Sony Vegas 9 (звук).
MuxMan (сборка). DvdReMakePro (финал).

DVDInfo

Title: Dummie de Mummie (2014) DVD-5_Custom
Size: 4.36 Gb ( 4 573 946,00 KBytes ) - DVD-5
Enabled regions: 1, 2, 3, 4, 5, 6, 7, 8
VTS_01 :
Play Length: 00:00:22
Video: PAL 16:9 (720x576) VBR, Auto Letterboxed
Audio:
Not specified (Dolby AC3, 2 ch)
VTS_02 :
Play Length: 00:00:04
Video: PAL 16:9 (720x576) VBR, Auto Letterboxed
Audio:
Not specified (Dolby AC3, 2 ch)
VTS_03 :
Play Length: 00:04:20
Video: PAL 16:9 (720x576) VBR, Auto Letterboxed
Audio:
Not specified (Dolby AC3, 2 ch)
VTS_04 :
Play Length: 00:00:10
Video: PAL 16:9 (720x576) VBR, Auto Letterboxed
Audio:
Not specified (Dolby AC3, 2 ch)
VTS_05 :
Play Length: 01:16:30
Video: PAL 16:9 (720x576) VBR, Auto Letterboxed
Audio:
Russian (Dolby AC3, 2 ch)
Nederlands (Dolby AC3, 6 ch)
Subtitles:
Nederlands
Nederlands
English
English
VTS_06 :
Play Length: 00:04:48+{00:04:48}
Video: PAL 16:9 (720x576) VBR, Auto Letterboxed
Audio:
Nederlands (Dolby AC3, 2 ch)
VTS_07 :
Play Length: 00:05:05+{00:05:05}
Video: PAL 16:9 (720x576) VBR, Auto Letterboxed
Audio:
Nederlands (Dolby AC3, 2 ch)
VTS_08 :
Play Length: 00:04:53+{00:04:53}
Video: PAL 16:9 (720x576) VBR, Auto Letterboxed
Audio:
Nederlands (Dolby AC3, 2 ch)
VTS_09 :
Play Length: 00:04:52+{00:04:52}
Video: PAL 16:9 (720x576) VBR, Auto Letterboxed
Audio:
Nederlands (Dolby AC3, 2 ch)
VTS_10 :
Play Length: 00:05:16+{00:05:16}
Video: PAL 16:9 (720x576) VBR, Auto Letterboxed
Audio:
Nederlands (Dolby AC3, 2 ch)

MediaInfo

Общее
Полное имя : F:\МОИ ВИДЕО ЗАПИСИ DViX, AVi, MPG4\ФИЛЬМЫ В ФОРМАТЕ DVD VOB НА ЯЗЫКЕ ОРИГИНАЛА\Моя любимая мумия Dummie de Mummie (2014) Нидерланды DVD5\Dummie de Mummie (2014) DVD-5_Custom\VIDEO_TS\VIDEO_TS.BUP
Формат : DVD Video
Профиль формата : Menu
Размер файла : 20,0 Кбайт
Режим общего битрейта : Переменный
Видео
Идентификатор : 224 (0xE0)
Формат : MPEG Video
Версия формата : Version 1
Вид битрейта : Переменный
Ширина : 720 пикселей
Высота : 480 пикселей
Соотношение сторон : 4:3
Частота кадров : 29,970 кадров/сек
Стандарт вещания : NTSC
Метод сжатия : С потерями
Общее
Полное имя : F:\МОИ ВИДЕО ЗАПИСИ DViX, AVi, MPG4\ФИЛЬМЫ В ФОРМАТЕ DVD VOB НА ЯЗЫКЕ ОРИГИНАЛА\Моя любимая мумия Dummie de Mummie (2014) Нидерланды DVD5\Dummie de Mummie (2014) DVD-5_Custom\VIDEO_TS\VIDEO_TS.IFO
Формат : DVD Video
Профиль формата : Menu
Размер файла : 20,0 Кбайт
Режим общего битрейта : Переменный
Видео
Идентификатор : 224 (0xE0)
Формат : MPEG Video
Версия формата : Version 1
Вид битрейта : Переменный
Ширина : 720 пикселей
Высота : 480 пикселей
Соотношение сторон : 4:3
Частота кадров : 29,970 кадров/сек
Стандарт вещания : NTSC
Метод сжатия : С потерями
Общее
Полное имя : F:\МОИ ВИДЕО ЗАПИСИ DViX, AVi, MPG4\ФИЛЬМЫ В ФОРМАТЕ DVD VOB НА ЯЗЫКЕ ОРИГИНАЛА\Моя любимая мумия Dummie de Mummie (2014) Нидерланды DVD5\Dummie de Mummie (2014) DVD-5_Custom\VIDEO_TS\VTS_01_0.BUP
Формат : DVD Video
Профиль формата : Program
Размер файла : 24,0 Кбайт
Продолжительность : 22 с.
Режим общего битрейта : Переменный
Общий поток : 8593 бит/сек
Видео
Идентификатор : 224 (0xE0)
Формат : MPEG Video
Версия формата : Version 2
Продолжительность : 22 с.
Вид битрейта : Переменный
Ширина : 720 пикселей
Высота : 576 пикселей
Соотношение сторон : 16:9
Частота кадров : 25,000 кадров/сек
Стандарт вещания : PAL
Метод сжатия : С потерями
Аудио #1
Идентификатор : 128 (0x80)
Формат : AC-3
Формат/Информация : Audio Coding 3
Продолжительность : 22 с.
Каналы : 2 канала
Частота : 48,0 КГц
Метод сжатия : С потерями
Аудио #2
Формат : AC-3
Формат/Информация : Audio Coding 3
Продолжительность : 22 с.
Каналы : 6 каналов
Частота : 48,0 КГц
Метод сжатия : С потерями
Язык : English
Аудио #3
Формат : AC-3
Формат/Информация : Audio Coding 3
Продолжительность : 22 с.
Каналы : 6 каналов
Частота : 48,0 КГц
Метод сжатия : С потерями
Язык : English
Аудио #4
Формат : AC-3
Формат/Информация : Audio Coding 3
Продолжительность : 22 с.
Каналы : 6 каналов
Частота : 48,0 КГц
Метод сжатия : С потерями
Язык : English
Аудио #5
Формат : AC-3
Формат/Информация : Audio Coding 3
Продолжительность : 22 с.
Каналы : 6 каналов
Частота : 48,0 КГц
Метод сжатия : С потерями
Язык : English
Аудио #6
Формат : AC-3
Формат/Информация : Audio Coding 3
Продолжительность : 22 с.
Каналы : 6 каналов
Частота : 48,0 КГц
Метод сжатия : С потерями
Язык : English
Аудио #7
Формат : AC-3
Формат/Информация : Audio Coding 3
Продолжительность : 22 с.
Каналы : 6 каналов
Частота : 48,0 КГц
Метод сжатия : С потерями
Язык : English
Аудио #8
Формат : AC-3
Формат/Информация : Audio Coding 3
Продолжительность : 22 с.
Каналы : 6 каналов
Частота : 48,0 КГц
Метод сжатия : С потерями
Язык : English
Текст #1
Формат : RLE
Формат/Информация : Run-length encoding
Битовая глубина : 2 бит
Текст #2
Формат : RLE
Формат/Информация : Run-length encoding
Битовая глубина : 2 бит
Текст #3
Формат : RLE
Формат/Информация : Run-length encoding
Битовая глубина : 2 бит
Текст #4
Формат : RLE
Формат/Информация : Run-length encoding
Битовая глубина : 2 бит
Текст #5
Формат : RLE
Формат/Информация : Run-length encoding
Битовая глубина : 2 бит
Текст #6
Формат : RLE
Формат/Информация : Run-length encoding
Битовая глубина : 2 бит
Текст #7
Формат : RLE
Формат/Информация : Run-length encoding
Битовая глубина : 2 бит
Текст #8
Формат : RLE
Формат/Информация : Run-length encoding
Битовая глубина : 2 бит
Текст #9
Формат : RLE
Формат/Информация : Run-length encoding
Битовая глубина : 2 бит
Текст #10
Формат : RLE
Формат/Информация : Run-length encoding
Битовая глубина : 2 бит
Текст #11
Формат : RLE
Формат/Информация : Run-length encoding
Битовая глубина : 2 бит
Текст #12
Формат : RLE
Формат/Информация : Run-length encoding
Битовая глубина : 2 бит
Текст #13
Формат : RLE
Формат/Информация : Run-length encoding
Битовая глубина : 2 бит
Текст #14
Формат : RLE
Формат/Информация : Run-length encoding
Битовая глубина : 2 бит
Текст #15
Формат : RLE
Формат/Информация : Run-length encoding
Битовая глубина : 2 бит
Текст #16
Формат : RLE
Формат/Информация : Run-length encoding
Битовая глубина : 2 бит
Текст #17
Формат : RLE
Формат/Информация : Run-length encoding
Битовая глубина : 2 бит
Текст #18
Формат : RLE
Формат/Информация : Run-length encoding
Битовая глубина : 2 бит
Текст #19
Формат : RLE
Формат/Информация : Run-length encoding
Битовая глубина : 2 бит
Текст #20
Формат : RLE
Формат/Информация : Run-length encoding
Битовая глубина : 2 бит
Текст #21
Формат : RLE
Формат/Информация : Run-length encoding
Битовая глубина : 2 бит
Текст #22
Формат : RLE
Формат/Информация : Run-length encoding
Битовая глубина : 2 бит
Текст #23
Формат : RLE
Формат/Информация : Run-length encoding
Битовая глубина : 2 бит
Текст #24
Формат : RLE
Формат/Информация : Run-length encoding
Битовая глубина : 2 бит
Текст #25
Формат : RLE
Формат/Информация : Run-length encoding
Битовая глубина : 2 бит
Текст #26
Формат : RLE
Формат/Информация : Run-length encoding
Битовая глубина : 2 бит
Текст #27
Формат : RLE
Формат/Информация : Run-length encoding
Битовая глубина : 2 бит
Текст #28
Формат : RLE
Формат/Информация : Run-length encoding
Битовая глубина : 2 бит
Текст #29
Формат : RLE
Формат/Информация : Run-length encoding
Битовая глубина : 2 бит
Текст #30
Формат : RLE
Формат/Информация : Run-length encoding
Битовая глубина : 2 бит
Текст #31
Формат : RLE
Формат/Информация : Run-length encoding
Битовая глубина : 2 бит
Текст #32
Формат : RLE
Формат/Информация : Run-length encoding
Битовая глубина : 2 бит
Меню
Продолжительность : 22 с.
00:00:00.000 : Chapter 1
00:00:22.360 : Chapter 2
List (Audio) : 0
Общее
Полное имя : F:\МОИ ВИДЕО ЗАПИСИ DViX, AVi, MPG4\ФИЛЬМЫ В ФОРМАТЕ DVD VOB НА ЯЗЫКЕ ОРИГИНАЛА\Моя любимая мумия Dummie de Mummie (2014) Нидерланды DVD5\Dummie de Mummie (2014) DVD-5_Custom\VIDEO_TS\VTS_01_0.IFO
Формат : DVD Video
Профиль формата : Program
Размер файла : 24,0 Кбайт
Продолжительность : 22 с.
Режим общего битрейта : Переменный
Общий поток : 8593 бит/сек
Видео
Идентификатор : 224 (0xE0)
Формат : MPEG Video
Версия формата : Version 2
Продолжительность : 22 с.
Вид битрейта : Переменный
Ширина : 720 пикселей
Высота : 576 пикселей
Соотношение сторон : 16:9
Частота кадров : 25,000 кадров/сек
Стандарт вещания : PAL
Метод сжатия : С потерями
Аудио #1
Идентификатор : 128 (0x80)
Формат : AC-3
Формат/Информация : Audio Coding 3
Продолжительность : 22 с.
Каналы : 2 канала
Частота : 48,0 КГц
Метод сжатия : С потерями
Аудио #2
Формат : AC-3
Формат/Информация : Audio Coding 3
Продолжительность : 22 с.
Каналы : 6 каналов
Частота : 48,0 КГц
Метод сжатия : С потерями
Язык : English
Аудио #3
Формат : AC-3
Формат/Информация : Audio Coding 3
Продолжительность : 22 с.
Каналы : 6 каналов
Частота : 48,0 КГц
Метод сжатия : С потерями
Язык : English
Аудио #4
Формат : AC-3
Формат/Информация : Audio Coding 3
Продолжительность : 22 с.
Каналы : 6 каналов
Частота : 48,0 КГц
Метод сжатия : С потерями
Язык : English
Аудио #5
Формат : AC-3
Формат/Информация : Audio Coding 3
Продолжительность : 22 с.
Каналы : 6 каналов
Частота : 48,0 КГц
Метод сжатия : С потерями
Язык : English
Аудио #6
Формат : AC-3
Формат/Информация : Audio Coding 3
Продолжительность : 22 с.
Каналы : 6 каналов
Частота : 48,0 КГц
Метод сжатия : С потерями
Язык : English
Аудио #7
Формат : AC-3
Формат/Информация : Audio Coding 3
Продолжительность : 22 с.
Каналы : 6 каналов
Частота : 48,0 КГц
Метод сжатия : С потерями
Язык : English
Аудио #8
Формат : AC-3
Формат/Информация : Audio Coding 3
Продолжительность : 22 с.
Каналы : 6 каналов
Частота : 48,0 КГц
Метод сжатия : С потерями
Язык : English
Текст #1
Формат : RLE
Формат/Информация : Run-length encoding
Битовая глубина : 2 бит
Текст #2
Формат : RLE
Формат/Информация : Run-length encoding
Битовая глубина : 2 бит
Текст #3
Формат : RLE
Формат/Информация : Run-length encoding
Битовая глубина : 2 бит
Текст #4
Формат : RLE
Формат/Информация : Run-length encoding
Битовая глубина : 2 бит
Текст #5
Формат : RLE
Формат/Информация : Run-length encoding
Битовая глубина : 2 бит
Текст #6
Формат : RLE
Формат/Информация : Run-length encoding
Битовая глубина : 2 бит
Текст #7
Формат : RLE
Формат/Информация : Run-length encoding
Битовая глубина : 2 бит
Текст #8
Формат : RLE
Формат/Информация : Run-length encoding
Битовая глубина : 2 бит
Текст #9
Формат : RLE
Формат/Информация : Run-length encoding
Битовая глубина : 2 бит
Текст #10
Формат : RLE
Формат/Информация : Run-length encoding
Битовая глубина : 2 бит
Текст #11
Формат : RLE
Формат/Информация : Run-length encoding
Битовая глубина : 2 бит
Текст #12
Формат : RLE
Формат/Информация : Run-length encoding
Битовая глубина : 2 бит
Текст #13
Формат : RLE
Формат/Информация : Run-length encoding
Битовая глубина : 2 бит
Текст #14
Формат : RLE
Формат/Информация : Run-length encoding
Битовая глубина : 2 бит
Текст #15
Формат : RLE
Формат/Информация : Run-length encoding
Битовая глубина : 2 бит
Текст #16
Формат : RLE
Формат/Информация : Run-length encoding
Битовая глубина : 2 бит
Текст #17
Формат : RLE
Формат/Информация : Run-length encoding
Битовая глубина : 2 бит
Текст #18
Формат : RLE
Формат/Информация : Run-length encoding
Битовая глубина : 2 бит
Текст #19
Формат : RLE
Формат/Информация : Run-length encoding
Битовая глубина : 2 бит
Текст #20
Формат : RLE
Формат/Информация : Run-length encoding
Битовая глубина : 2 бит
Текст #21
Формат : RLE
Формат/Информация : Run-length encoding
Битовая глубина : 2 бит
Текст #22
Формат : RLE
Формат/Информация : Run-length encoding
Битовая глубина : 2 бит
Текст #23
Формат : RLE
Формат/Информация : Run-length encoding
Битовая глубина : 2 бит
Текст #24
Формат : RLE
Формат/Информация : Run-length encoding
Битовая глубина : 2 бит
Текст #25
Формат : RLE
Формат/Информация : Run-length encoding
Битовая глубина : 2 бит
Текст #26
Формат : RLE
Формат/Информация : Run-length encoding
Битовая глубина : 2 бит
Текст #27
Формат : RLE
Формат/Информация : Run-length encoding
Битовая глубина : 2 бит
Текст #28
Формат : RLE
Формат/Информация : Run-length encoding
Битовая глубина : 2 бит
Текст #29
Формат : RLE
Формат/Информация : Run-length encoding
Битовая глубина : 2 бит
Текст #30
Формат : RLE
Формат/Информация : Run-length encoding
Битовая глубина : 2 бит
Текст #31
Формат : RLE
Формат/Информация : Run-length encoding
Битовая глубина : 2 бит
Текст #32
Формат : RLE
Формат/Информация : Run-length encoding
Битовая глубина : 2 бит
Меню
Продолжительность : 22 с.
00:00:00.000 : Chapter 1
00:00:22.360 : Chapter 2
List (Audio) : 0
Общее
Полное имя : F:\МОИ ВИДЕО ЗАПИСИ DViX, AVi, MPG4\ФИЛЬМЫ В ФОРМАТЕ DVD VOB НА ЯЗЫКЕ ОРИГИНАЛА\Моя любимая мумия Dummie de Mummie (2014) Нидерланды DVD5\Dummie de Mummie (2014) DVD-5_Custom\VIDEO_TS\VTS_01_0.VOB
Формат : MPEG-PS
Размер файла : 6,27 Мбайт
Продолжительность : 46 с.
Режим общего битрейта : Переменный
Общий поток : 1138 Кбит/сек
Видео
Идентификатор : 224 (0xE0)
Формат : MPEG Video
Версия формата : Version 2
Профиль формата : Main@Main
Параметр BVOP формата : Нет
Параметр матрицы формата : Выборочная
Продолжительность : 40 мс.
Вид битрейта : Переменный
Битрейт : 668 Кбит/сек
Максимальный битрейт : 8000 Кбит/сек
Ширина : 720 пикселей
Высота : 576 пикселей
Соотношение сторон : 16:9
Частота кадров : 25,000 кадров/сек
Стандарт вещания : PAL
Цветовое пространство : YUV
Субдискретизация насыщенности : 4:2:0
Битовая глубина : 8 бит
Тип развёртки : Прогрессивная
Порядок развёртки : Верхнее поле первое
Метод сжатия : С потерями
Бит/(Пиксели*Кадры) : 0.064
Размер потока : 3,26 Кбайт (0%)
Основные цвета : BT.601 PAL
Характеристики трансфера : BT.470 System B, BT.470 System G
Коэффициенты матрицы : BT.601
Аудио
Идентификатор : 189 (0xBD)-128 (0x80)
Формат : AC-3
Формат/Информация : Audio Coding 3
Расширение режима : CM (complete main)
Параметр Endianness формата : Big
Режим смешивания : DVD-Video
Продолжительность : 46 с.
Вид битрейта : Постоянный
Битрейт : 448 Кбит/сек
Каналы : 6 каналов
Расположение каналов : Front: L C R, Side: L R, LFE
Частота : 48,0 КГц
Метод сжатия : С потерями
Размер потока : 2,47 Мбайт (39%)
Текст #1
Идентификатор : 189 (0xBD)-32 (0x20)
Формат : RLE
Формат/Информация : Run-length encoding
Режим смешивания : DVD-Video
Текст #2
Идентификатор : 189 (0xBD)-33 (0x21)
Формат : RLE
Формат/Информация : Run-length encoding
Режим смешивания : DVD-Video
Меню
Общее
Полное имя : F:\МОИ ВИДЕО ЗАПИСИ DViX, AVi, MPG4\ФИЛЬМЫ В ФОРМАТЕ DVD VOB НА ЯЗЫКЕ ОРИГИНАЛА\Моя любимая мумия Dummie de Mummie (2014) Нидерланды DVD5\Dummie de Mummie (2014) DVD-5_Custom\VIDEO_TS\VTS_01_1.VOB
Формат : MPEG-PS
Размер файла : 24,7 Мбайт
Продолжительность : 22 с.
Общий поток : 9051 Кбит/сек
Видео
Идентификатор : 224 (0xE0)
Формат : MPEG Video
Версия формата : Version 2
Профиль формата : Main@Main
Параметр BVOP формата : Да
Параметр матрицы формата : По умолчанию
Параметр GOP формата : M=3, N=12
Структура изображения : Frame
Продолжительность : 22 с.
Битрейт : 8646 Кбит/сек
Максимальный битрейт : 9000 Кбит/сек
Ширина : 720 пикселей
Высота : 576 пикселей
Соотношение сторон : 16:9
Частота кадров : 25,000 кадров/сек
Стандарт вещания : PAL
Цветовое пространство : YUV
Субдискретизация насыщенности : 4:2:0
Битовая глубина : 8 бит
Тип развёртки : Чересстрочная
Порядок развёртки : Верхнее поле первое
Метод сжатия : С потерями
Бит/(Пиксели*Кадры) : 0.834
Временной код первого кадра : 00:00:00:00
Оригинал временного кода : Group of pictures header
GOP, открыто/закрыто : Закрыто
Размер потока : 23,6 Мбайт (96%)
Аудио
Идентификатор : 189 (0xBD)-128 (0x80)
Формат : AC-3
Формат/Информация : Audio Coding 3
Расширение режима : CM (complete main)
Параметр Endianness формата : Big
Режим смешивания : DVD-Video
Продолжительность : 21 с.
Вид битрейта : Постоянный
Битрейт : 224 Кбит/сек
Каналы : 2 канала
Расположение каналов : Front: L R
Частота : 48,0 КГц
Метод сжатия : С потерями
Размер потока : 599 Кбайт (2%)
Меню
Общее
Полное имя : F:\МОИ ВИДЕО ЗАПИСИ DViX, AVi, MPG4\ФИЛЬМЫ В ФОРМАТЕ DVD VOB НА ЯЗЫКЕ ОРИГИНАЛА\Моя любимая мумия Dummie de Mummie (2014) Нидерланды DVD5\Dummie de Mummie (2014) DVD-5_Custom\VIDEO_TS\VTS_02_0.BUP
Формат : DVD Video
Профиль формата : Program
Размер файла : 18,0 Кбайт
Продолжительность : 4 с. 0 мс.
Режим общего битрейта : Переменный
Общий поток : 36,9 Кбит/сек
Видео
Идентификатор : 224 (0xE0)
Формат : MPEG Video
Версия формата : Version 2
Продолжительность : 4 с. 0 мс.
Вид битрейта : Переменный
Ширина : 720 пикселей
Высота : 576 пикселей
Соотношение сторон : 16:9
Частота кадров : 25,000 кадров/сек
Стандарт вещания : PAL
Метод сжатия : С потерями
Аудио
Идентификатор : 128 (0x80)
Формат : AC-3
Формат/Информация : Audio Coding 3
Продолжительность : 4 с. 0 мс.
Каналы : 2 канала
Частота : 48,0 КГц
Метод сжатия : С потерями
Меню
Продолжительность : 4 с. 0 мс.
00:00:00.000 : Chapter 1
List (Audio) : 0
Общее
Полное имя : F:\МОИ ВИДЕО ЗАПИСИ DViX, AVi, MPG4\ФИЛЬМЫ В ФОРМАТЕ DVD VOB НА ЯЗЫКЕ ОРИГИНАЛА\Моя любимая мумия Dummie de Mummie (2014) Нидерланды DVD5\Dummie de Mummie (2014) DVD-5_Custom\VIDEO_TS\VTS_02_0.IFO
Формат : DVD Video
Профиль формата : Program
Размер файла : 18,0 Кбайт
Продолжительность : 4 с. 0 мс.
Режим общего битрейта : Переменный
Общий поток : 36,9 Кбит/сек
Видео
Идентификатор : 224 (0xE0)
Формат : MPEG Video
Версия формата : Version 2
Продолжительность : 4 с. 0 мс.
Вид битрейта : Переменный
Ширина : 720 пикселей
Высота : 576 пикселей
Соотношение сторон : 16:9
Частота кадров : 25,000 кадров/сек
Стандарт вещания : PAL
Метод сжатия : С потерями
Аудио
Идентификатор : 128 (0x80)
Формат : AC-3
Формат/Информация : Audio Coding 3
Продолжительность : 4 с. 0 мс.
Каналы : 2 канала
Частота : 48,0 КГц
Метод сжатия : С потерями
Меню
Продолжительность : 4 с. 0 мс.
00:00:00.000 : Chapter 1
List (Audio) : 0
Общее
Полное имя : F:\МОИ ВИДЕО ЗАПИСИ DViX, AVi, MPG4\ФИЛЬМЫ В ФОРМАТЕ DVD VOB НА ЯЗЫКЕ ОРИГИНАЛА\Моя любимая мумия Dummie de Mummie (2014) Нидерланды DVD5\Dummie de Mummie (2014) DVD-5_Custom\VIDEO_TS\VTS_02_0.VOB
Формат : MPEG-PS
Размер файла : 152 Кбайт
Продолжительность : 600 мс.
Общий поток : 2075 Кбит/сек
Видео
Идентификатор : 224 (0xE0)
Формат : MPEG Video
Версия формата : Version 2
Профиль формата : Main@Main
Параметр BVOP формата : Да
Параметр матрицы формата : Выборочная
Структура изображения : Frame
Продолжительность : 600 мс.
Максимальный битрейт : 2000 Кбит/сек
Ширина : 720 пикселей
Высота : 576 пикселей
Соотношение сторон : 4:3
Частота кадров : 25,000 кадров/сек
Стандарт вещания : PAL
Цветовое пространство : YUV
Субдискретизация насыщенности : 4:2:0
Битовая глубина : 8 бит
Тип развёртки : Чересстрочная
Порядок развёртки : Верхнее поле первое
Метод сжатия : С потерями
Временной код первого кадра : 00:00:00:00
Оригинал временного кода : Group of pictures header
Меню
Общее
Полное имя : F:\МОИ ВИДЕО ЗАПИСИ DViX, AVi, MPG4\ФИЛЬМЫ В ФОРМАТЕ DVD VOB НА ЯЗЫКЕ ОРИГИНАЛА\Моя любимая мумия Dummie de Mummie (2014) Нидерланды DVD5\Dummie de Mummie (2014) DVD-5_Custom\VIDEO_TS\VTS_02_1.VOB
Формат : MPEG-PS
Размер файла : 1,79 Мбайт
Продолжительность : 4 с. 0 мс.
Общий поток : 3760 Кбит/сек
Библиотека кодирования : encoded by TMPGEnc 4.0 XPress Version. 4.4.1.237
Видео
Идентификатор : 224 (0xE0)
Формат : MPEG Video
Версия формата : Version 2
Профиль формата : Main@Main
Параметр BVOP формата : Да
Параметр матрицы формата : Выборочная
Параметр GOP формата : Variable
Структура изображения : Frame
Продолжительность : 4 с. 0 мс.
Битрейт : 3461 Кбит/сек
Ширина : 720 пикселей
Высота : 576 пикселей
Соотношение сторон : 4:3
Частота кадров : 25,000 кадров/сек
Стандарт вещания : PAL
Цветовое пространство : YUV
Субдискретизация насыщенности : 4:2:0
Битовая глубина : 8 бит
Тип развёртки : Чересстрочная
Порядок развёртки : Верхнее поле первое
Метод сжатия : С потерями
Бит/(Пиксели*Кадры) : 0.334
Временной код первого кадра : 00:00:00:00
Оригинал временного кода : Group of pictures header
Размер потока : 1,65 Мбайт (92%)
Библиотека кодирования : TMPGEnc XPress 4.4.1.237
Основные цвета : BT.601 PAL
Характеристики трансфера : BT.470 System B, BT.470 System G
Коэффициенты матрицы : BT.601
Аудио
Идентификатор : 189 (0xBD)-128 (0x80)
Формат : AC-3
Формат/Информация : Audio Coding 3
Расширение режима : CM (complete main)
Параметр Endianness формата : Big
Режим смешивания : DVD-Video
Продолжительность : 3 с. 8 мс.
Вид битрейта : Постоянный
Битрейт : 224 Кбит/сек
Каналы : 2 канала
Расположение каналов : Front: L R
Частота : 48,0 КГц
Метод сжатия : С потерями
Размер потока : 82,3 Кбайт (4%)
Меню
Общее
Полное имя : F:\МОИ ВИДЕО ЗАПИСИ DViX, AVi, MPG4\ФИЛЬМЫ В ФОРМАТЕ DVD VOB НА ЯЗЫКЕ ОРИГИНАЛА\Моя любимая мумия Dummie de Mummie (2014) Нидерланды DVD5\Dummie de Mummie (2014) DVD-5_Custom\VIDEO_TS\VTS_03_0.BUP
Формат : DVD Video
Профиль формата : Program
Размер файла : 20,0 Кбайт
Продолжительность : 4 м. 20 с.
Режим общего битрейта : Переменный
Общий поток : 629 бит/сек
Видео
Идентификатор : 224 (0xE0)
Формат : MPEG Video
Версия формата : Version 2
Продолжительность : 4 м. 20 с.
Вид битрейта : Переменный
Ширина : 720 пикселей
Высота : 576 пикселей
Соотношение сторон : 16:9
Частота кадров : 25,000 кадров/сек
Стандарт вещания : PAL
Метод сжатия : С потерями
Аудио
Идентификатор : 128 (0x80)
Формат : AC-3
Формат/Информация : Audio Coding 3
Продолжительность : 4 м. 20 с.
Каналы : 2 канала
Частота : 48,0 КГц
Метод сжатия : С потерями
Меню
Продолжительность : 4 м. 20 с.
00:00:00.000 : Chapter 1
00:00:06.640 : Chapter 2
00:01:03.280 : Chapter 3
00:02:30.320 : Chapter 4
00:04:19.960 : Chapter 5
List (Audio) : 0
Общее
Полное имя : F:\МОИ ВИДЕО ЗАПИСИ DViX, AVi, MPG4\ФИЛЬМЫ В ФОРМАТЕ DVD VOB НА ЯЗЫКЕ ОРИГИНАЛА\Моя любимая мумия Dummie de Mummie (2014) Нидерланды DVD5\Dummie de Mummie (2014) DVD-5_Custom\VIDEO_TS\VTS_03_0.IFO
Формат : DVD Video
Профиль формата : Program
Размер файла : 20,0 Кбайт
Продолжительность : 4 м. 20 с.
Режим общего битрейта : Переменный
Общий поток : 629 бит/сек
Видео
Идентификатор : 224 (0xE0)
Формат : MPEG Video
Версия формата : Version 2
Продолжительность : 4 м. 20 с.
Вид битрейта : Переменный
Ширина : 720 пикселей
Высота : 576 пикселей
Соотношение сторон : 16:9
Частота кадров : 25,000 кадров/сек
Стандарт вещания : PAL
Метод сжатия : С потерями
Аудио
Идентификатор : 128 (0x80)
Формат : AC-3
Формат/Информация : Audio Coding 3
Продолжительность : 4 м. 20 с.
Каналы : 2 канала
Частота : 48,0 КГц
Метод сжатия : С потерями
Меню
Продолжительность : 4 м. 20 с.
00:00:00.000 : Chapter 1
00:00:06.640 : Chapter 2
00:01:03.280 : Chapter 3
00:02:30.320 : Chapter 4
00:04:19.960 : Chapter 5
List (Audio) : 0
Общее
Полное имя : F:\МОИ ВИДЕО ЗАПИСИ DViX, AVi, MPG4\ФИЛЬМЫ В ФОРМАТЕ DVD VOB НА ЯЗЫКЕ ОРИГИНАЛА\Моя любимая мумия Dummie de Mummie (2014) Нидерланды DVD5\Dummie de Mummie (2014) DVD-5_Custom\VIDEO_TS\VTS_03_0.VOB
Формат : MPEG-PS
Размер файла : 152 Кбайт
Продолжительность : 600 мс.
Общий поток : 2075 Кбит/сек
Видео
Идентификатор : 224 (0xE0)
Формат : MPEG Video
Версия формата : Version 2
Профиль формата : Main@Main
Параметр BVOP формата : Да
Параметр матрицы формата : Выборочная
Структура изображения : Frame
Продолжительность : 600 мс.
Максимальный битрейт : 2000 Кбит/сек
Ширина : 720 пикселей
Высота : 576 пикселей
Соотношение сторон : 4:3
Частота кадров : 25,000 кадров/сек
Стандарт вещания : PAL
Цветовое пространство : YUV
Субдискретизация насыщенности : 4:2:0
Битовая глубина : 8 бит
Тип развёртки : Чересстрочная
Порядок развёртки : Верхнее поле первое
Метод сжатия : С потерями
Временной код первого кадра : 00:00:00:00
Оригинал временного кода : Group of pictures header
Меню
Общее
Полное имя : F:\МОИ ВИДЕО ЗАПИСИ DViX, AVi, MPG4\ФИЛЬМЫ В ФОРМАТЕ DVD VOB НА ЯЗЫКЕ ОРИГИНАЛА\Моя любимая мумия Dummie de Mummie (2014) Нидерланды DVD5\Dummie de Mummie (2014) DVD-5_Custom\VIDEO_TS\VTS_03_1.VOB
Формат : MPEG-PS
Размер файла : 179 Мбайт
Продолжительность : 4 м. 20 с.
Режим общего битрейта : Переменный
Общий поток : 5766 Кбит/сек
Библиотека кодирования : encoded by TMPGEnc 4.0 XPress Version. 4.4.1.237
Видео
Идентификатор : 224 (0xE0)
Формат : MPEG Video
Версия формата : Version 2
Профиль формата : Main@Main
Параметр BVOP формата : Да
Параметр матрицы формата : Выборочная
Параметр GOP формата : M=3, N=12
Структура изображения : Frame
Продолжительность : 4 м. 20 с.
Вид битрейта : Переменный
Битрейт : 5427 Кбит/сек
Максимальный битрейт : 9000 Кбит/сек
Ширина : 720 пикселей
Высота : 576 пикселей
Соотношение сторон : 16:9
Частота кадров : 25,000 кадров/сек
Стандарт вещания : PAL
Цветовое пространство : YUV
Субдискретизация насыщенности : 4:2:0
Битовая глубина : 8 бит
Тип развёртки : Чересстрочная
Порядок развёртки : Верхнее поле первое
Метод сжатия : С потерями
Бит/(Пиксели*Кадры) : 0.523
Временной код первого кадра : 00:00:00:00
Оригинал временного кода : Group of pictures header
GOP, открыто/закрыто : Открыто
GOP, открыто/закрыто на первом кадре : Закрыто
Размер потока : 169 Мбайт (94%)
Библиотека кодирования : TMPGEnc XPress 4.4.1.237
Основные цвета : BT.601 PAL
Характеристики трансфера : BT.470 System B, BT.470 System G
Коэффициенты матрицы : BT.601
Аудио
Идентификатор : 189 (0xBD)-128 (0x80)
Формат : AC-3
Формат/Информация : Audio Coding 3
Расширение режима : CM (complete main)
Параметр Endianness формата : Big
Режим смешивания : DVD-Video
Продолжительность : 4 м. 19 с.
Вид битрейта : Постоянный
Битрейт : 224 Кбит/сек
Каналы : 2 канала
Расположение каналов : Front: L R
Частота : 48,0 КГц
Метод сжатия : С потерями
Размер потока : 6,93 Мбайт (4%)
Меню
Общее
Полное имя : F:\МОИ ВИДЕО ЗАПИСИ DViX, AVi, MPG4\ФИЛЬМЫ В ФОРМАТЕ DVD VOB НА ЯЗЫКЕ ОРИГИНАЛА\Моя любимая мумия Dummie de Mummie (2014) Нидерланды DVD5\Dummie de Mummie (2014) DVD-5_Custom\VIDEO_TS\VTS_04_0.BUP
Формат : DVD Video
Профиль формата : Program
Размер файла : 18,0 Кбайт
Продолжительность : 10 с.
Режим общего битрейта : Переменный
Общий поток : 13,7 Кбит/сек
Видео
Идентификатор : 224 (0xE0)
Формат : MPEG Video
Версия формата : Version 2
Продолжительность : 10 с.
Вид битрейта : Переменный
Ширина : 720 пикселей
Высота : 576 пикселей
Соотношение сторон : 16:9
Частота кадров : 25,000 кадров/сек
Стандарт вещания : PAL
Метод сжатия : С потерями
Аудио
Идентификатор : 128 (0x80)
Формат : AC-3
Формат/Информация : Audio Coding 3
Продолжительность : 10 с.
Каналы : 2 канала
Частота : 48,0 КГц
Метод сжатия : С потерями
Меню
Продолжительность : 10 с.
00:00:00.000 : Chapter 1
00:00:10.280 : Chapter 2
List (Audio) : 0
Общее
Полное имя : F:\МОИ ВИДЕО ЗАПИСИ DViX, AVi, MPG4\ФИЛЬМЫ В ФОРМАТЕ DVD VOB НА ЯЗЫКЕ ОРИГИНАЛА\Моя любимая мумия Dummie de Mummie (2014) Нидерланды DVD5\Dummie de Mummie (2014) DVD-5_Custom\VIDEO_TS\VTS_04_0.IFO
Формат : DVD Video
Профиль формата : Program
Размер файла : 18,0 Кбайт
Продолжительность : 10 с.
Режим общего битрейта : Переменный
Общий поток : 13,7 Кбит/сек
Видео
Идентификатор : 224 (0xE0)
Формат : MPEG Video
Версия формата : Version 2
Продолжительность : 10 с.
Вид битрейта : Переменный
Ширина : 720 пикселей
Высота : 576 пикселей
Соотношение сторон : 16:9
Частота кадров : 25,000 кадров/сек
Стандарт вещания : PAL
Метод сжатия : С потерями
Аудио
Идентификатор : 128 (0x80)
Формат : AC-3
Формат/Информация : Audio Coding 3
Продолжительность : 10 с.
Каналы : 2 канала
Частота : 48,0 КГц
Метод сжатия : С потерями
Меню
Продолжительность : 10 с.
00:00:00.000 : Chapter 1
00:00:10.280 : Chapter 2
List (Audio) : 0
Общее
Полное имя : F:\МОИ ВИДЕО ЗАПИСИ DViX, AVi, MPG4\ФИЛЬМЫ В ФОРМАТЕ DVD VOB НА ЯЗЫКЕ ОРИГИНАЛА\Моя любимая мумия Dummie de Mummie (2014) Нидерланды DVD5\Dummie de Mummie (2014) DVD-5_Custom\VIDEO_TS\VTS_04_0.VOB
Формат : MPEG-PS
Размер файла : 152 Кбайт
Продолжительность : 600 мс.
Общий поток : 2075 Кбит/сек
Видео
Идентификатор : 224 (0xE0)
Формат : MPEG Video
Версия формата : Version 2
Профиль формата : Main@Main
Параметр BVOP формата : Да
Параметр матрицы формата : Выборочная
Структура изображения : Frame
Продолжительность : 600 мс.
Максимальный битрейт : 2000 Кбит/сек
Ширина : 720 пикселей
Высота : 576 пикселей
Соотношение сторон : 4:3
Частота кадров : 25,000 кадров/сек
Стандарт вещания : PAL
Цветовое пространство : YUV
Субдискретизация насыщенности : 4:2:0
Битовая глубина : 8 бит
Тип развёртки : Чересстрочная
Порядок развёртки : Верхнее поле первое
Метод сжатия : С потерями
Временной код первого кадра : 00:00:00:00
Оригинал временного кода : Group of pictures header
Меню
Общее
Полное имя : F:\МОИ ВИДЕО ЗАПИСИ DViX, AVi, MPG4\ФИЛЬМЫ В ФОРМАТЕ DVD VOB НА ЯЗЫКЕ ОРИГИНАЛА\Моя любимая мумия Dummie de Mummie (2014) Нидерланды DVD5\Dummie de Mummie (2014) DVD-5_Custom\VIDEO_TS\VTS_04_1.VOB
Формат : MPEG-PS
Размер файла : 7,26 Мбайт
Продолжительность : 10 с.
Режим общего битрейта : Переменный
Общий поток : 5637 Кбит/сек
Видео
Идентификатор : 224 (0xE0)
Формат : MPEG Video
Версия формата : Version 2
Профиль формата : Main@Main
Параметр BVOP формата : Да
Параметр матрицы формата : По умолчанию
Параметр GOP формата : Variable
Продолжительность : 10 с.
Вид битрейта : Переменный
Битрейт : 5301 Кбит/сек
Максимальный битрейт : 9000 Кбит/сек
Ширина : 720 пикселей
Высота : 576 пикселей
Соотношение сторон : 16:9
Частота кадров : 25,000 кадров/сек
Стандарт вещания : PAL
Цветовое пространство : YUV
Субдискретизация насыщенности : 4:2:0
Битовая глубина : 8 бит
Тип развёртки : Прогрессивная
Метод сжатия : С потерями
Бит/(Пиксели*Кадры) : 0.511
Временной код первого кадра : 00:00:00:00
Оригинал временного кода : Group of pictures header
GOP, открыто/закрыто : Закрыто
Размер потока : 6,82 Мбайт (94%)
Аудио
Идентификатор : 189 (0xBD)-128 (0x80)
Формат : AC-3
Формат/Информация : Audio Coding 3
Расширение режима : CM (complete main)
Параметр Endianness формата : Big
Режим смешивания : DVD-Video
Продолжительность : 10 с.
Вид битрейта : Постоянный
Битрейт : 224 Кбит/сек
Каналы : 2 канала
Расположение каналов : Front: L R
Частота : 48,0 КГц
Метод сжатия : С потерями
Размер потока : 274 Кбайт (4%)
Меню
Общее
Полное имя : F:\МОИ ВИДЕО ЗАПИСИ DViX, AVi, MPG4\ФИЛЬМЫ В ФОРМАТЕ DVD VOB НА ЯЗЫКЕ ОРИГИНАЛА\Моя любимая мумия Dummie de Mummie (2014) Нидерланды DVD5\Dummie de Mummie (2014) DVD-5_Custom\VIDEO_TS\VTS_05_0.BUP
Формат : DVD Video
Профиль формата : Program
Размер файла : 58,0 Кбайт
Продолжительность : 1 ч. 16 м.
Режим общего битрейта : Переменный
Общий поток : 104 бит/сек
Видео
Идентификатор : 224 (0xE0)
Формат : MPEG Video
Версия формата : Version 2
Продолжительность : 1 ч. 16 м.
Вид битрейта : Переменный
Ширина : 720 пикселей
Высота : 576 пикселей
Соотношение сторон : 16:9
Частота кадров : 25,000 кадров/сек
Стандарт вещания : PAL
Метод сжатия : С потерями
Аудио #1
Идентификатор : 128 (0x80)
Формат : AC-3
Формат/Информация : Audio Coding 3
Продолжительность : 1 ч. 16 м.
Каналы : 2 канала
Частота : 48,0 КГц
Метод сжатия : С потерями
Язык : Russian
Аудио #2
Идентификатор : 129 (0x81)
Формат : AC-3
Формат/Информация : Audio Coding 3
Продолжительность : 1 ч. 16 м.
Каналы : 6 каналов
Частота : 48,0 КГц
Метод сжатия : С потерями
Язык : Dutch
Текст #1
Идентификатор : 32 (0x20)
Формат : RLE
Формат/Информация : Run-length encoding
Битовая глубина : 2 бит
Язык : Dutch
Текст #2
Идентификатор : 33 (0x21)
Формат : RLE
Формат/Информация : Run-length encoding
Битовая глубина : 2 бит
Язык : Dutch
Текст #3
Идентификатор : 34 (0x22)
Формат : RLE
Формат/Информация : Run-length encoding
Битовая глубина : 2 бит
Язык : English
Текст #4
Идентификатор : 35 (0x23)
Формат : RLE
Формат/Информация : Run-length encoding
Битовая глубина : 2 бит
Язык : English
Меню
Продолжительность : 1 ч. 16 м.
00:00:00.000 : Chapter 1
00:09:39.440 : Chapter 2
00:23:57.720 : Chapter 3
00:33:24.440 : Chapter 4
00:49:43.720 : Chapter 5
01:00:16.240 : Chapter 6
01:14:49.360 : Chapter 7
List (Audio) : 0 / 1
List (Subtitles 4/3) : 0 / 0 / 0 / 0
List (Subtitles Wide) : 0 / 1 / 2 / 3
List (Subtitles Letterbox) : 0 / 1 / 2 / 3
List (Subtitles Pan&Scan) : 0 / 0 / 0 / 0
Общее
Полное имя : F:\МОИ ВИДЕО ЗАПИСИ DViX, AVi, MPG4\ФИЛЬМЫ В ФОРМАТЕ DVD VOB НА ЯЗЫКЕ ОРИГИНАЛА\Моя любимая мумия Dummie de Mummie (2014) Нидерланды DVD5\Dummie de Mummie (2014) DVD-5_Custom\VIDEO_TS\VTS_05_0.IFO
Формат : DVD Video
Профиль формата : Program
Размер файла : 58,0 Кбайт
Продолжительность : 1 ч. 16 м.
Режим общего битрейта : Переменный
Общий поток : 104 бит/сек
Видео
Идентификатор : 224 (0xE0)
Формат : MPEG Video
Версия формата : Version 2
Продолжительность : 1 ч. 16 м.
Вид битрейта : Переменный
Ширина : 720 пикселей
Высота : 576 пикселей
Соотношение сторон : 16:9
Частота кадров : 25,000 кадров/сек
Стандарт вещания : PAL
Метод сжатия : С потерями
Аудио #1
Идентификатор : 128 (0x80)
Формат : AC-3
Формат/Информация : Audio Coding 3
Продолжительность : 1 ч. 16 м.
Каналы : 2 канала
Частота : 48,0 КГц
Метод сжатия : С потерями
Язык : Russian
Аудио #2
Идентификатор : 129 (0x81)
Формат : AC-3
Формат/Информация : Audio Coding 3
Продолжительность : 1 ч. 16 м.
Каналы : 6 каналов
Частота : 48,0 КГц
Метод сжатия : С потерями
Язык : Dutch
Текст #1
Идентификатор : 32 (0x20)
Формат : RLE
Формат/Информация : Run-length encoding
Битовая глубина : 2 бит
Язык : Dutch

Скриншоты меню

Скриншоты



_________________
Показать сообщения:    

Текущее время: Сегодня 04:51

Часовой пояс: GMT



Вы не можете начинать темы
Вы не можете отвечать на сообщения
Вы не можете редактировать свои сообщения
Вы не можете удалять свои сообщения
Вы не можете голосовать в опросах
Вы не можете прикреплять файлы к сообщениям
Вы не можете скачивать файлы