Ивановский Торрент трекер
Яндекс.Погода
 

[Цитировать]
HUNTER

Моя дорогая Клементина / My Darling Clementine
Страна: США
Жанр: вестерн
Год выпуска: 1946
Продолжительность: 01:43:18
Перевод: Профессиональный (многоголосый закадровый) Светла
Cубтитры: английские
Оригинальная аудиодорожка: английский-Режиссер: Джон Форд / John Ford
В ролях: Генри Фонда, Линда Дарнелл, Виктор Мэтьюр, Кэти Даунз, Уолтер Бреннан, Тим Холт, Уорд Бонд, Алан Моубрэй, Джон Айрленд, Рой Робертс, Джейн Дарвелл, Грант Уизерс, Джозеф Фаррелл МакДональд, Расселл Симпсон
Описание: По роману Стюарта Н.Лейка.
Аризона, 1882 год. Уайтт Эрп со своими братьями перегоняет скот для продажи. Во время стоянки бандиты нападают на братьев и убивают младшего из них. Для того, чтобы отомстить, Уайтт устраивается шерифом в местный городок. На его сторону становится известный стрелок Джон «Док» Холлидэй.
IMDb || КиноПоиск-Тип релиза: BDRemux 1080p
Контейнер: MKV
Видео: MPEG-4 AVC Video, 1920x1080 at 23.976 fps, 15000 kbps
Аудио#1: Russian: 48 kHz, AC3, 2.0 ch, 192 kbps
Аудио#2: English: 48 kHz, AC3, 1.0 ch, 192 kbps
Формат субтитров: softsub (SRT)
Сэмпл

Дополнительно

Отечественная дорожка и английские субтитры с раздачи Murya DVD9.

MediaInfo

Source: My Darling Clementine 1946 1080p Blu-ray AVC LPCM 1.0 (thanks Alfred21)-General
Unique ID : 200989665471593118072633450708072615382 (0x973533971A9482EA896795EED0434DD6)
Complete name : I:\Моя дорогая Клементина\My.Darling.Clementine.Pre-Release.1946.Criterion.BDRemux. rutracker.mkv
Format : Matroska
Format version : Version 2
File size : 11.1 GiB
Duration : 1h 43mn
Overall bit rate mode : Variable
Overall bit rate : 15.4 Mbps
Movie name : Release for RuTracker
Writing application : mkvmerge v5.0.1 ('Es ist Sommer') built on Nov 6 2011 16:23:40
Writing library : libebml v1.2.2 + libmatroska v1.3.0
Video
ID : 1
Format : AVC
Format/Info : Advanced Video Codec
Format profile : High@L4.1
Format settings, CABAC : Yes
Format settings, ReFrames : 4 frames
Codec ID : V_MPEG4/ISO/AVC
Duration : 1h 43mn
Bit rate mode : Variable
Bit rate : 14.7 Mbps
Maximum bit rate : 37.0 Mbps
Width : 1 920 pixels
Height : 1 080 pixels
Display aspect ratio : 16:9
Frame rate mode : Constant
Frame rate : 23.976 fps
Color space : YUV
Chroma subsampling : 4:2:0
Bit depth : 8 bits
Scan type : Progressive
Bits/(Pixel*Frame) : 0.295
Stream size : 10.6 GiB (96%)
Title : My.Darling.Clementine.Pre-Release.1946.Criterion.BDRemux. rutracker
Language : English
Default : Yes
Forced : No
Audio #1
ID : 2
Format : AC-3
Format/Info : Audio Coding 3
Mode extension : CM (complete main)
Format settings, Endianness : Big
Codec ID : A_AC3
Duration : 1h 43mn
Bit rate mode : Constant
Bit rate : 192 Kbps
Channel(s) : 2 channels
Channel positions : Front: L R
Sampling rate : 48.0 KHz
Bit depth : 16 bits
Compression mode : Lossy
Stream size : 142 MiB (1%)
Language : Russian
Default : Yes
Forced : No
Audio #2
ID : 3
Format : AC-3
Format/Info : Audio Coding 3
Mode extension : CM (complete main)
Format settings, Endianness : Big
Codec ID : A_AC3
Duration : 1h 43mn
Bit rate mode : Constant
Bit rate : 192 Kbps
Channel(s) : 1 channel
Channel positions : Front: C
Sampling rate : 48.0 KHz
Bit depth : 16 bits
Compression mode : Lossy
Stream size : 142 MiB (1%)
Language : English
Default : No
Forced : No
Text
ID : 4
Format : UTF-8
Codec ID : S_TEXT/UTF8
Codec ID/Info : UTF-8 Plain Text
Language : English
Default : No
Forced : No
Menu
00:00:00.000 : :1.Signposts
00:02:15.426 : :2.Offer declined
00:05:07.515 : :3."So long, James!"
00:06:49.784 : :4.Barbershop bullets
00:11:50.710 : :5.New marshal
00:14:54.518 : :6.For a sale life
00:16:43.252 : :7."I love poker"
00:22:17.794 : :8.Doc's rules
00:30:28.493 : :9.Maintaining order
00:38:55.833 : :10.Clementine
00:43:57.843 : :11.Fond farewells
00:45:13.794 : :12.Doc's plea
00:50:52.132 : :13.No finer girl
00:55:11.599 : :14.Nice people
00:59:53.172 : :15.Chihuahua on top
01:02:12.854 : :16."Church bells in Tombstone"
01:04:16.227 : :17.The dance
01:09:11.647 : :18.Suspecting Doc
01:13:11.387 : :19.Through talking
01:17:11.376 : :20.Caught in a lie
01:20:06.718 : :21."Doc, you're gonna operate"
01:22:53.510 : :22.Losses on both sides
01:30:01.771 : :23.Shoot-out
01:39:44.937 : :24.A handshake

Скриншоты

Показать сообщения:    

Текущее время: 19-Окт 02:45

Часовой пояс: UTC - 1


Вы не можете начинать темы
Вы не можете отвечать на сообщения
Вы не можете редактировать свои сообщения
Вы не можете удалять свои сообщения
Вы не можете голосовать в опросах
Вы не можете прикреплять файлы к сообщениям
Вы не можете скачивать файлы

!ВНИМАНИЕ!
Сайт не предоставляет электронные версии произведений, а занимается лишь коллекционированием и каталогизацией ссылок, присылаемых и публикуемых на форуме нашими читателями. Если вы являетесь правообладателем какого-либо представленного материала и не желаете, чтобы ссылка на него находилась в нашем каталоге, свяжитесь с нами, и мы незамедлительно удалим ее. Файлы для обмена на трекере предоставлены пользователями сайта, и администрация не несет ответственности за их содержание. Просьба не заливать файлы, защищенные авторскими правами, а также файлы нелегального содержания!