Важное объявление!
У Нас Все раздачи мультитрекерные, при нуле пиров в релизах, можете смело вставать на закачку!
 
Автор Сообщение

HUNTER

Стаж:
4 года 8 месяцев
Сообщений:
62116

Репутация: 101

[+] [-]
Вне форума [Профиль] [ЛС]

Моя дорогая Клементина / My Darling Clementine
Страна: США
Жанр: вестерн
Год выпуска: 1946
Продолжительность: 01:37:19
Перевод: Профессиональный (многоголосый закадровый) SomeWax
Cубтитры: русские, английские
Оригинальная аудиодорожка: английский-Режиссер: Джон Форд / John Ford
В ролях: Генри Фонда, Линда Дарнелл, Виктор Мэтьюр, Кэти Даунз, Уолтер Бреннан, Тим Холт, Уорд Бонд, Алан Моубрэй, Джон Айрленд, Рой Робертс, Джейн Дарвелл, Грант Уизерс, Джозеф Фаррелл МакДональд, Расселл Симпсон
Описание: По роману Стюарта Н.Лейка.
Аризона, 1882 год. Уайтт Эрп со своими братьями перегоняет скот для продажи. Во время стоянки бандиты нападают на братьев и убивают младшего из них. Для того, чтобы отомстить, Уайтт устраивается шерифом в местный городок Тумстоун. На его сторону становится известный стрелок Джон «Док» Холлидэй.
IMDb || КиноПоиск-Тип релиза: BDRemux 1080p
Контейнер: MKV
Видео: MPEG-4 AVC Video, 1920x1080 at 23.976 fps, 26797 kbps
Аудио#1: Russian: 48 kHz, AC3, 2.0 ch, 192 kbps
Аудио#2: English: 48 kHz, LPCM, 1.0 ch, 1152 kbps
Аудио#3: English: 48 kHz, AC3, 1.0 ch, 192 kbps |Commentary featuring John Ford biographer Joseph McBride
Формат субтитров: softsub (SRT)
Сэмпл

Дополнительно

Отечественная дорожка и субтитры с раздачи Prosto_Alex DVD5.

MediaInfo

Source: My Darling Clementine 1946 1080p Blu-ray AVC LPCM 1.0 (thanks Alfred21)-General
Unique ID : 190466249480753798049009665851170716258 (0x8F4A771FABC7B74AAEDD664F2B5F7A62)
Complete name : I:\Моя дорогая Клементина\My.Darling.Clementine.Theatrical.1946.Criterion.BDRemux. rutracker.mkv
Format : Matroska
Format version : Version 2
File size : 19.2 GiB
Duration : 1h 37mn
Overall bit rate mode : Variable
Overall bit rate : 28.2 Mbps
Movie name : Release for RuTracker
Writing application : mkvmerge v5.0.1 ('Es ist Sommer') built on Nov 6 2011 16:23:40
Writing library : libebml v1.2.2 + libmatroska v1.3.0
Video
ID : 1
Format : AVC
Format/Info : Advanced Video Codec
Format profile : High@L4.1
Format settings, CABAC : Yes
Format settings, ReFrames : 4 frames
Codec ID : V_MPEG4/ISO/AVC
Duration : 1h 37mn
Bit rate mode : Variable
Maximum bit rate : 37.0 Mbps
Width : 1 920 pixels
Height : 1 080 pixels
Display aspect ratio : 16:9
Frame rate mode : Constant
Frame rate : 23.976 fps
Color space : YUV
Chroma subsampling : 4:2:0
Bit depth : 8 bits
Scan type : Progressive
Title : My.Darling.Clementine.Theatrical.1946.Criterion.BDRemux. rutracker
Language : English
Default : Yes
Forced : No
Audio #1
ID : 2
Format : AC-3
Format/Info : Audio Coding 3
Mode extension : CM (complete main)
Format settings, Endianness : Big
Codec ID : A_AC3
Duration : 1h 37mn
Bit rate mode : Constant
Bit rate : 192 Kbps
Channel(s) : 2 channels
Channel positions : Front: L R
Sampling rate : 48.0 KHz
Bit depth : 16 bits
Compression mode : Lossy
Stream size : 134 MiB (1%)
Language : Russian
Default : Yes
Forced : No
Audio #2
ID : 3
Format : PCM
Codec ID : A_PCM/INT/LIT
Duration : 1h 37mn
Bit rate mode : Constant
Sampling rate : 48.0 KHz
Bit depth : 24 bits
Language : English
Default : No
Forced : No
Audio #3
ID : 4
Format : AC-3
Format/Info : Audio Coding 3
Mode extension : CM (complete main)
Format settings, Endianness : Big
Codec ID : A_AC3
Duration : 1h 37mn
Bit rate mode : Constant
Bit rate : 192 Kbps
Channel(s) : 1 channel
Channel positions : Front: C
Sampling rate : 48.0 KHz
Bit depth : 16 bits
Compression mode : Lossy
Stream size : 134 MiB (1%)
Title : commentary
Language : English
Default : No
Forced : No
Text #1
ID : 5
Format : UTF-8
Codec ID : S_TEXT/UTF8
Codec ID/Info : UTF-8 Plain Text
Language : Russian
Default : No
Forced : No
Text #2
ID : 6
Format : UTF-8
Codec ID : S_TEXT/UTF8
Codec ID/Info : UTF-8 Plain Text
Language : English
Default : No
Forced : No
Menu
00:00:00.000 : :1.Opening credits
00:01:50.693 : :2.Rough-looking country
00:04:43.574 : :3.Saying good-bye
00:06:25.843 : :4.Tombstone
00:11:26.936 : :5.Rustled
00:14:30.786 : :6.Wyatt's goal
00:17:12.281 : :7.Chihuahua
00:20:47.412 : :8.Doc Holliday
00:28:44.264 : :9.Men of culture
00:36:01.576 : :10.Arrivals and departures
00:41:36.035 : :11.Reason for leaving
00:46:50.182 : :12.Wyatt's words
00:51:09.649 : :13.Memories of home
00:55:30.702 : :14.Doc Holliday's girls
00:57:50.383 : :15.A woman's pride
00:59:53.756 : :16.New foundations
01:04:51.679 : :17."Doc's gone"
01:08:51.418 : :18.Catching his quarry
01:12:51.367 : :19.Silenced
01:18:15.982 : :20.Vengeance
01:23:49.941 : :21.A family affair
01:25:23.701 : :22.The O.K. Corral
01:34:49.767 : :23.Settling down

Скриншоты


_________________
Показать сообщения:    

Текущее время: Сегодня 14:58

Часовой пояс: GMT



Вы не можете начинать темы
Вы не можете отвечать на сообщения
Вы не можете редактировать свои сообщения
Вы не можете удалять свои сообщения
Вы не можете голосовать в опросах
Вы не можете прикреплять файлы к сообщениям
Вы не можете скачивать файлы
Наши партнеры: интернет магазин Ивановского трикотажа textilla.ru