Важное объявление!
У Нас Все раздачи мультитрекерные, при нуле пиров в релизах, можете смело вставать на закачку!
 
Автор Сообщение

HUNTER

Стаж:
4 года 9 месяцев
Сообщений:
65057

Репутация: 101

[+] [-]
Вне форума [Профиль] [ЛС]

Моя горничная - цундэрэ-секси / Tsun Tsun Maid wa Ero Ero Desu
Год производства: 2013
Страна: Япония
Жанр: хентай
Серии: ep. 1-2 of 2
Продолжительность: ~16 мин.
Режиcсёр: неизвестно-Субтитры : Отсутствуют
Перевод : Любительский(RUS - одноголосный, закадровый [VashMax2])
Цензура : Присутствует-Описание: Первая любовь и первый опыт всегда случаются неожиданно тем более если это ваша подруга детства которая работает у вас горничной. Makio просыпается от знакомого голоса, хотя всё ещё думает что это сон, увидев свою старую знакомую он чуть не упал с кровати. Едва продрав глаза он видит перед собой симпатичную девушку с аккуратной фигурой, пышную грудь, смелый наряд из мини юбки и фартука. Вообще со стороны выглядит это очень сексуально, в общем как и обычно не будем отвлекаться от сюжета ведь как вы поняли нас ждёт что-то интересное. Ну наш герой решил поупражняться со своей рукой и попросил нашу красотку выйти из комнаты, она выходит оглядываясь назад не понимая что сделала не так. Прикрыв дверь и глядя через не большой проём в двери видит как наш герой Makio делает.... как бы так сказать "утреннее упражнения" Ну она девушка не глупая и приносит ему салфетки, мол не пачкай кровать. Хехе, он так был занят своими "упражнениями" что даже не заметил как она подкралась. Да вот так и спалился, она говорит что ему нужна опытная девушка которая всему его научит и в роли учителя она предлагает себя, вот тут наша история и начинается.-Качество : WebRip
Формат : FLV
Видео : AVC, 1280x720 (16:9), ~ 746 kbps, ~ 24 fps
Аудио: MP3, 44.1 kHz, 2ch, ~ 125 kbps-

Список эпизодов

1)Воспитание хозяина
2:
2.1 Секс в ванной;
2.2 Секс и порка.

MediaInfo

Tsun_Tsun_Maid_01_VashMax2.FLV

General
Format: Flash Video
File size: 108 MiB
Duration: 16mn 11s
Overall bit rate mode: Variable
Overall bit rate: 930 Kbps
width: 1280
Video
Format: AVC
Format/Info: Advanced Video Codec
Format profile: [url=mailto:High@L3.1]High@L3.1[/url]
Format settings, CABAC: Yes
Format settings, ReFrames: 4 frames
Codec ID: 7
Duration: 16mn 11s
Bit rate: 746 Kbps
Width: 1 280 pixels
Height: 720 pixels
Display aspect ratio: 16:9
Frame rate mode: Constant
Frame rate: 1 000.000 fps
Original frame rate: 24.000 fps
Color space: YUV
Chroma subsampling: 4:2:0
Bit depth: 8 bits
Scan type: Progressive
Bits/(Pixel*Frame): 0.001
Stream size: 87.9 MiB (82%)
Writing library: x264 core 125 r2200 999b753
Encoding settings: cabac=1 / ref=4 / deblock=1:-2:-2 / analyse=0x3:0x113 / me=umh / subme=6 / psy=1 / psy_rd=1.00:0.25 / mixed_ref=1 / me_range=16 / chroma_me=1 / trellis=1 / 8x8dct=1 / cqm=0 / deadzone=6,6 / fast_pskip=1 / chroma_qp_offset=-4 / threads=12 / lookahead_threads=2 / sliced_threads=0 / nr=0 / decimate=0 / interlaced=0 / bluray_compat=0 / constrained_intra=0 / bframes=5 / b_pyramid=2 / b_adapt=1 / b_bias=0 / direct=3 / weightb=1 / open_gop=0 / weightp=2 / keyint=75 / keyint_min=7 / scenecut=40 / intra_refresh=0 / rc_lookahead=30 / rc=2pass / mbtree=1 / bitrate=746 / ratetol=1.0 / qcomp=0.80 / qpmin=0 / qpmax=69 / qpstep=4 / cplxblur=20.0 / qblur=0.5 / vbv_maxrate=1269 / vbv_bufsize=3805 / nal_hrd=none / ip_ratio=1.10 / aq=1:0.50
Audio
Format: MPEG Audio
Format version: Version 1
Format profile: Layer 3
Mode: Joint stereo
Codec ID: 2
Codec ID/Hint: MP3
Duration: 16mn 11s
Bit rate mode: Variable
Bit rate: 125 Kbps
Channel(s): 2 channels
Sampling rate: 44.1 KHz
Compression mode: Lossy
Delay relative to video: 83ms
Stream size: 14.5 MiB (13%)
Writing library: LAME3.99.5ЄЄЄЄЄ

Tsun_Tsun_Maid_02_VashMax2.FLV

General
Format: Flash Video
File size: 98.7 MiB
Duration: 15mn 33s
Overall bit rate mode: Variable
Overall bit rate: 887 Kbps
width: 720
Video
Format: AVC
Format/Info: Advanced Video Codec
Format profile: [url=mailto:High@L3.0]High@L3.0[/url]
Format settings, CABAC: Yes
Format settings, ReFrames: 4 frames
Codec ID: 7
Duration: 15mn 32s
Bit rate: 737 Kbps
Width: 720 pixels
Height: 480 pixels
Display aspect ratio: 3:2
Frame rate mode: Constant
Frame rate: 1 000.000 fps
Original frame rate: 24.000 fps
Standard: NTSC
Color space: YUV
Chroma subsampling: 4:2:0
Bit depth: 8 bits
Scan type: Progressive
Bits/(Pixel*Frame): 0.002
Stream size: 79.8 MiB (81%)
Writing library: x264 core 125 r2200 999b753
Encoding settings: cabac=1 / ref=4 / deblock=1:-2:-2 / analyse=0x3:0x113 / me=umh / subme=6 / psy=1 / psy_rd=1.00:0.25 / mixed_ref=1 / me_range=16 / chroma_me=1 / trellis=1 / 8x8dct=1 / cqm=0 / deadzone=6,6 / fast_pskip=1 / chroma_qp_offset=-4 / threads=36 / lookahead_threads=6 / sliced_threads=0 / nr=0 / decimate=0 / interlaced=0 / bluray_compat=0 / constrained_intra=0 / bframes=5 / b_pyramid=2 / b_adapt=1 / b_bias=0 / direct=3 / weightb=1 / open_gop=0 / weightp=2 / keyint=75 / keyint_min=7 / scenecut=40 / intra_refresh=0 / rc_lookahead=30 / rc=2pass / mbtree=1 / bitrate=737 / ratetol=1.0 / qcomp=0.80 / qpmin=0 / qpmax=69 / qpstep=4 / cplxblur=20.0 / qblur=0.5 / vbv_maxrate=1253 / vbv_bufsize=3759 / nal_hrd=none / ip_ratio=1.10 / aq=1:0.50
Audio
Format: MPEG Audio
Format version: Version 1
Format profile: Layer 3
Mode: Joint stereo
Codec ID: 2
Codec ID/Hint: MP3
Duration: 15mn 33s
Bit rate mode: Variable
Bit rate: 125 Kbps
Channel(s): 2 channels
Sampling rate: 44.1 KHz
Compression mode: Lossy
Delay relative to video: 83ms
Stream size: 13.9 MiB (14%)
Writing library: LAME3.99.5

_________________
Показать сообщения:    

Текущее время: Сегодня 04:32

Часовой пояс: GMT



Вы не можете начинать темы
Вы не можете отвечать на сообщения
Вы не можете редактировать свои сообщения
Вы не можете удалять свои сообщения
Вы не можете голосовать в опросах
Вы не можете прикреплять файлы к сообщениям
Вы не можете скачивать файлы