Важное объявление!
У Нас Все раздачи мультитрекерные, при нуле пиров в релизах, можете смело вставать на закачку!
 
Автор Сообщение

HUNTER

Стаж:
4 года 9 месяцев
Сообщений:
65070

Репутация: 101

[+] [-]
Вне форума [Профиль] [ЛС]

Моя вина / Mea culpa-Год выпуска: 2014
Страна: Франция, 13�me Rue, Bad Company, Canal+ [fr], Cin�, Gaumont, K.R. Productions, LGM Productions, Nexus Factory, uMedia Family
Жанр: Боевик, триллер
Продолжительность: 01:30:20
Перевод: Профессиональный многоголосый [Лицензия]
Субтитры: Английские-В ролях: Венсан Линдон, Жиль Леллуш, Надин Лабаки, Жиль Коэн, Макс Биссетт де Малглайв, Меди Садун, Велибор Топик, Сириль Леконт, Жиль Белломи, Саша Петронижевич
Режиссёр: Фред Кавайе-Описание: Франк и Симон напарники полицейские из Тулона. После трагической аварии Симон теряет всё: свою семейную жизнь, свою работу полицейского. Франк выходит сухим из воды. Шесть лет спустя под угрозой оказывается ставший случайным свидетелем преступления сын Симона Тео. Бывший полицейский готов на всё, чтобы защитить свою семью. Но для этого ему ему предстоит объединиться со своим бывшим напарником Франком.-Качество: BDRip 1080p
Формат: MKV
Видео кодек: AVC
Аудио кодек: AC3, DTS
Видео: MPEG-4 AVC, 8880 Кбит/с, 1920х816, 24.000 fps
Аудио: AC3, 448 kb/s (6 ch), 48 Кгц - Русский
Аудио: DTS, 1510 kb/s (6 ch), 48 Кгц - Французкий

Рейтинг:

MediaInfo

Общее
Уникальный идентификатор : 187038305667603014264612685315288575524 (0x8CB64471EB504A0983DF96D00FBFAE24)
Полное имя : D:\Кино\Mea.Culpa.2014.P.BDRip.1080p.mkv
Формат : Matroska
Версия формата : Version 2
Размер файла : 6,84 Гбайт
Продолжительность : 1 ч. 30 м.
Общий поток : 10,8 Мбит/сек
Название фильма : Mea.Culpa.2014.P.BDRip.1080p.ELEKTRI4KA.rustorrents.org[kolbas&3imeMachi9e]
Дата кодирования : UTC 2015-02-17 10:17:50
Программа кодирования : mkvmerge v5.0.1 ('Es ist Sommer') built on Nov 6 2011 16:23:40
Библиотека кодирования : libebml v1.2.2 + libmatroska v1.3.0
Видео
Идентификатор : 1
Формат : AVC
Формат/Информация : Advanced Video Codec
Профиль формата : High@L4.1
Параметр CABAC формата : Да
Параметр ReFrames формата : 5 кадров
Идентификатор кодека : V_MPEG4/ISO/AVC
Продолжительность : 1 ч. 30 м.
Битрейт : 8880 Кбит/сек
Ширина : 1920 пикселей
Высота : 816 пикселей
Соотношение сторон : 2,35:1
Режим частоты кадров : Постоянный
Частота кадров : 24,000 кадра/сек
Цветовое пространство : YUV
Субдискретизация насыщенности : 4:2:0
Битовая глубина : 8 бит
Тип развёртки : Прогрессивная
Бит/(Пиксели*Кадры) : 0.236
Размер потока : 5,47 Гбайт (80%)
Заголовок : Mea.Culpa.2014.P.BDRip.1080p.ELEKTRI4KA.rustorrents.org[kolbas&3imeMachi9e]
Библиотека кодирования : x264 core 142 r2431 ac76440
Настройки программы : cabac=1 / ref=5 / deblock=1:0:0 / analyse=0x3:0x113 / me=umh / subme=8 / psy=1 / psy_rd=1.00:0.00 / mixed_ref=1 / me_range=16 / chroma_me=1 / trellis=1 / 8x8dct=1 / cqm=0 / deadzone=21,11 / fast_pskip=1 / chroma_qp_offset=-2 / threads=12 / lookahead_threads=2 / sliced_threads=0 / nr=0 / decimate=1 / interlaced=0 / bluray_compat=0 / constrained_intra=0 / bframes=3 / b_pyramid=2 / b_adapt=2 / b_bias=0 / direct=3 / weightb=1 / open_gop=0 / weightp=2 / keyint=240 / keyint_min=24 / scenecut=40 / intra_refresh=0 / rc_lookahead=50 / rc=2pass / mbtree=1 / bitrate=8880 / ratetol=1.0 / qcomp=0.60 / qpmin=0 / qpmax=69 / qpstep=4 / cplxblur=20.0 / qblur=0.5 / ip_ratio=1.40 / aq=1:1.00
Язык : French
Default : Да
Forced : Нет
Аудио #1
Идентификатор : 2
Формат : AC-3
Формат/Информация : Audio Coding 3
Расширение режима : CM (complete main)
Параметр Endianness формата : Big
Идентификатор кодека : A_AC3
Продолжительность : 1 ч. 30 м.
Вид битрейта : Постоянный
Битрейт : 448 Кбит/сек
Каналы : 6 каналов
Расположение каналов : Front: L C R, Side: L R, LFE
Частота : 48,0 КГц
Битовая глубина : 16 бит
Метод сжатия : С потерями
Размер потока : 289 Мбайт (4%)
Заголовок : P [R5] - Mea.Culpa.2014.P.BDRip.1080p.ELEKTRI4KA.rustorrents.org[kolbas&3imeMachi9e]
Язык : Russian
Default : Да
Forced : Нет
Аудио #2
Идентификатор : 3
Формат : DTS
Формат/Информация : Digital Theater Systems
Режим : 16
Параметр Endianness формата : Big
Идентификатор кодека : A_DTS
Продолжительность : 1 ч. 30 м.
Вид битрейта : Постоянный
Битрейт : 1509 Кбит/сек
Каналы : 6 каналов
Расположение каналов : Front: L C R, Side: L R, LFE
Частота : 48,0 КГц
Битовая глубина : 24 бит
Метод сжатия : С потерями
Размер потока : 975 Мбайт (14%)
Заголовок : Original - Mea.Culpa.2014.P.BDRip.1080p.ELEKTRI4KA.rustorrents.org[kolbas&3imeMachi9e]
Язык : French
Default : Нет
Forced : Нет
Текст
Идентификатор : 4
Формат : UTF-8
Идентификатор кодека : S_TEXT/UTF8
Идентификатор кодека/Информация : UTF-8 Plain Text
Язык : English
Default : Нет
Forced : Нет
Меню
00:00:00.000 : en:00:00:00.000
00:08:13.042 : en:00:08:13.042
00:15:13.542 : en:00:15:13.542
00:22:06.500 : en:00:22:06.500
00:31:27.458 : en:00:31:27.458
00:41:17.750 : en:00:41:17.750
00:44:57.208 : en:00:44:57.208
00:52:50.750 : en:00:52:50.750
01:01:10.583 : en:01:01:10.583
01:09:34.833 : en:01:09:34.833
01:17:26.042 : en:01:17:26.042
01:23:41.292 : en:01:23:41.292
-

Скриншоты


_________________
Показать сообщения:    

Текущее время: Сегодня 00:08

Часовой пояс: GMT



Вы не можете начинать темы
Вы не можете отвечать на сообщения
Вы не можете редактировать свои сообщения
Вы не можете удалять свои сообщения
Вы не можете голосовать в опросах
Вы не можете прикреплять файлы к сообщениям
Вы не можете скачивать файлы