Важное объявление!
У Нас Все раздачи мультитрекерные, при нуле пиров в релизах, можете смело вставать на закачку!
 
Автор Сообщение

HUNTER

Стаж:
4 года 10 месяцев
Сообщений:
65473

Репутация: 101

[+] [-]
Вне форума [Профиль] [ЛС]

Мотыльки
Страна: Украина
Жанр: драма
Год выпуска: 2013
Продолжительность: 01:58:27
Cубтитры: нет
Оригинальная аудиодорожка: русская
Режиссер: Виталий Воробьёв
В ролях: Юрий Борисов, Мария Поезжаева, Евгения Лоза, Андрей Казаков, Юрий Назаров, Юлия Рутберг, Артём Ткаченко, Максим Заусалин, Тимур Боканча, Олег Примогенов, Станислав Щёкин, Семен Штейнберг, Наталья Васько, Александр Игнатуша, Евгений Ефремов, Азамат Нигманов, Евгений Сангаджиев, Дарья Питерова
Описание: История любви выпускницы старших классов Али и солдата срочной службы Паши, которая разворачивается в городе Припять на фоне одной из самых масштабных техногенных катастроф XX века. Словно мотыльки, стремящиеся к огню, они летят навстречу своим чувствам, не замечая ничего вокруг...
Дополнительно: Этот фильм существует также в виде [url=viewtopic.php?t=4720664]мини-сериала[/url].
Сэмпл: http://multi-up.com/1094233
Тип релиза: BDRip 720p
Контейнер: MKV
Видео: MPEG4-AVC/H.264, 16:9, 1280x720, 24fps, 6300kbps
Аудио: DTS, stereo, 48kHz, 24bit, 512kbps

MediaInfo

Код:
General
Complete name                            : Motylki.720p.mkv
Format                                   : Matroska
Format version                           : Version 4 / Version 2
File size                                : 5.76 GiB
Duration                                 : 1h 58mn
Overall bit rate mode                    : Variable
Overall bit rate                         : 6 959 Kbps
Writing application                      : mkvmerge v6.8.0 64bit built on Mar  2 2014 21:34:26
Writing library                          : libebml v1.3.0 + libmatroska v1.4.1
Video
ID                                       : 1
Format                                   : AVC
Format/Info                              : Advanced Video Codec
Format profile                           : High@L4
Format settings, CABAC                   : Yes
Format settings, ReFrames                : 6 frames
Codec ID                                 : V_MPEG4/ISO/AVC
Duration                                 : 1h 58mn
Bit rate mode                            : Variable
Bit rate                                 : 6 311 Kbps
Maximum bit rate                         : 15.0 Mbps
Width                                    : 1 280 pixels
Height                                   : 720 pixels
Display aspect ratio                     : 16:9
Frame rate mode                          : Constant
Frame rate                               : 25.000 fps
Standard                                 : Component
Color space                              : YUV
Chroma subsampling                       : 4:2:0
Bit depth                                : 8 bits
Scan type                                : Progressive
Bits/(Pixel*Frame)                       : 0.274
Stream size                              : 5.22 GiB (91%)
Default                                  : Yes
Forced                                   : No
Color range                              : Limited
Color primaries                          : BT.709
Transfer characteristics                 : BT.709
Matrix coefficients                      : BT.709
Audio
ID                                       : 2
Format                                   : DTS
Format/Info                              : Digital Theater Systems
Mode                                     : 16
Format settings, Endianness              : Big
Codec ID                                 : A_DTS
Duration                                 : 1h 58mn
Bit rate mode                            : Constant
Bit rate                                 : 510 Kbps
Channel(s)                               : 2 channels
Channel positions                        : Front: L R
Sampling rate                            : 48.0 KHz
Frame rate                               : 93.750 fps (512 spf)
Bit depth                                : 24 bits
Compression mode                         : Lossy
Stream size                              : 432 MiB (7%)
Language                                 : Russian
Default                                  : Yes
Forced                                   : No

Скриншоты


_________________
Показать сообщения:    

Текущее время: Сегодня 11:21

Часовой пояс: GMT



Вы не можете начинать темы
Вы не можете отвечать на сообщения
Вы не можете редактировать свои сообщения
Вы не можете удалять свои сообщения
Вы не можете голосовать в опросах
Вы не можете прикреплять файлы к сообщениям
Вы не можете скачивать файлы