Мотылек / Papillon (Франклин Дж. Шаффнер) [1973 г., Драма, криминал, биография, BDRip-AVC] 2хMVO+ 2хDVO+ AVO+ Orig :: Ивановский Торрент трекер
Важное объявление!
У Нас Все раздачи мультитрекерные, при нуле пиров в релизах, можете смело вставать на закачку!
Статистика раздачи
Размер:     |    Зарегистрирован:     |    Скачан:     |   
Нет
 
     
 
 
Автор Сообщение

mihis

[Профиль] [ЛС]

Мотылек / Papillon«Two men with nothing in common but a will to live and a place to die»
Год выпуска: 1973
Страна: США, Франция, Allied Artists Pictures Corporation, Corona-General, Solar Productions
Жанр: Драма, криминал, биография
Продолжительность: 02:30:47
Перевод #1: Профессиональный (многоголосый закадровый) DVD Магия
Перевод #2: Профессиональный (многоголосый закадровый) ОРТ
Перевод #3: Профессиональный (двухголосый закадровый) Гланц и Королёва
Перевод #4: Авторский (одноголосый закадровый) Андрей Гаврилов
Перевод #5: Профессиональный (двухголосый закадровый)
Перевод #6: Оригинал
Cубтитры:Rus,Eng
Режиссер: Франклин Дж. Шаффнер
В ролях: Стив МакКуин, Дастин Хоффман, Виктор Джори, Дон Гордон, Энтони Зерби, Роберт Димен, Вудроу Парфри, Билл Муми, Джордж Кулурис, Рэтна Ассан, Уильям Смитерс, Вэл Эйвери, Грегори Сьерра, Вик Тейбэк, Миллс Уотсон, Рон Собл, Барбара Моррисон, Дон Ханмер, Э.Дж. Андре, Ричард Ангарола, Джек Денбо, Лен Лессер, Джон Квэйд, Фред Сэдофф, Аллен Джаффе, Лиам Данн, Питер Брокко, Ричард Фарнсуорт, Билли М. Грин, Энн Бирн Хоффман, Фред Лернер, Гарри Монти, Эллен Мосс, Далтон Трамбо
Описание: За убийство, которое он не совершал, взломщик сейфов Анри Шарьер приговорён к пожизненному заключению и отправлен на каторгу. Прозванный «Мотыльком» из-за того, что на его груди вытатуирован этот символ свободы, Анри совершает несколько попыток побега. В наказание власти надолго сажают его в карцер, а затем отправляют во Французскую Гвиану на остров Дьявола, со всех сторон окружённый океаном. Из этой самой страшной каторжной тюрьмы не удавалось бежать ни одному заключённому. Но ничто не может заставить Анри пасть духом и сломить его решимость вырваться на волю…

Качество: BDRip-AVC
Формат: MKV
Видео кодек: H.264
Аудио кодек: AC3
Видео: x264, 1104x460 (2.40:1); 3 214 Kbps; 23.976 fps; 0.264 bpp
Аудио #1: 48 kHz, AC3 Dolby Digital, 2/0 (L,R) ch, ~192 kbps DVD Магия
Аудио #2: 48 kHz, AC3 Dolby Digital, 2/0 (L,R) ch, ~192 kbps ОРТ
Аудио #3: 48 kHz, AC3 Dolby Digital, 3/2 (L,C,R,l,r) + LFE ch, 448.00 kbps Гланц и Королёва
Аудио #4: 48 kHz, AC3 Dolby Digital, 3/2 (L,C,R,l,r) + LFE ch, 448.00 kbps А. Гаврилов
Аудио #5: 48 kHz, AC3 Dolby Digital, 2/0 (L,R) ch, ~192 kbps DVO
Аудио #6: 48 kHz, AC3 Dolby Digital, 3/2 (L,C,R,l,r) + LFE ch, 448.00 kbps Eng

Награды

Оскар, 1974 год
Номинации (1):
Лучший саундтрек к драматическому фильму
Золотой глобус, 1974 год
Номинации (1):
Лучшая мужская роль (драма) (Стив МакКуин)

MediaInfo

General
Unique ID : 229562719899702502568238776017698036238 (0xACB42BF066B7082B9F3011D3CD661A0E)
Complete name : Papillon.1973.BDRip-AVC.5xRus.Eng_gashik1.mkv
Format : Matroska
Format version : Version 2
File size : 5.52 GiB
Duration : 2h 30mn
Overall bit rate : 5 238 Kbps
Movie name : Papillon.1973.x264
Encoded date : UTC 2011-09-28 12:06:16
Writing application : mkvmerge v4.9.1 ('Ich will') сборка от Jul 11 2011 23:53:15
Writing library : libebml v1.2.1 + libmatroska v1.1.1
Video
ID : 1
Format : AVC
Format/Info : Advanced Video Codec
Format profile : High@L4.1
Format settings, CABAC : Yes
Format settings, ReFrames : 13 frames
Codec ID : V_MPEG4/ISO/AVC
Duration : 2h 30mn
Bit rate : 3 214 Kbps
Width : 1 104 pixels
Height : 460 pixels
Display aspect ratio : 2.40:1
Frame rate : 23.976 fps
Color space : YUV
Chroma subsampling : 4:2:0
Bit depth : 8 bits
Scan type : Progressive
Bits/(Pixel*Frame) : 0.264
Stream size : 3.39 GiB (61%)
Writing library : x264 core 116 r2074kMod 2641b9e
Encoding settings : cabac=1 / ref=13 / deblock=1:-3:-3 / analyse=0x3:0x113 / me=umh / subme=11 / psy=1 / fade_compensate=0.90 / psy_rd=1.00:0.15 / mixed_ref=1 / me_range=42 / chroma_me=1 / trellis=2 / 8x8dct=1 / cqm=0 / deadzone=21,11 / fast_pskip=0 / chroma_qp_offset=-2 / threads=6 / sliced_threads=0 / nr=0 / decimate=1 / interlaced=0 / bluray_compat=0 / constrained_intra=0 / bframes=12 / b_pyramid=2 / b_adapt=2 / b_bias=0 / direct=3 / weightb=1 / open_gop=0 / weightp=2 / keyint=250 / keyint_min=23 / scenecut=40 / intra_refresh=0 / rc_lookahead=60 / rc=crf / mbtree=1 / crf=19.0000 / qcomp=0.65 / qpmin=0 / qpmax=51 / qpstep=4 / vbv_maxrate=40000 / vbv_bufsize=52000 / crf_max=0.0 / nal_hrd=none / ip_ratio=1.30 / aq=3:0.80
Language : English
Color primaries : BT.709-5, BT.1361, IEC 61966-2-4, SMPTE RP177
Transfer characteristics : BT.709-5, BT.1361
Matrix coefficients : BT.709-5, BT.1361, IEC 61966-2-4 709, SMPTE RP177
Audio #1
ID : 2
Format : AC-3
Format/Info : Audio Coding 3
Mode extension : CM (complete main)
Codec ID : A_AC3
Duration : 2h 30mn
Bit rate mode : Constant
Bit rate : 192 Kbps
Channel(s) : 2 channels
Channel positions : Front: L R
Sampling rate : 48.0 KHz
Bit depth : 16 bits
Compression mode : Lossy
Stream size : 207 MiB (4%)
Title : 48 kHz, AC3 Dolby Digital, 2/0 (L,R) ch, ~192 kbps - (DVD Магия)
Language : Russian
Audio #2
ID : 3
Format : AC-3
Format/Info : Audio Coding 3
Mode extension : CM (complete main)
Codec ID : A_AC3
Duration : 2h 30mn
Bit rate mode : Constant
Bit rate : 192 Kbps
Channel(s) : 2 channels
Channel positions : Front: L R
Sampling rate : 48.0 KHz
Bit depth : 16 bits
Compression mode : Lossy
Stream size : 207 MiB (4%)
Title : 48 kHz, AC3 Dolby Digital, 2/0 (L,R) ch, ~192 kbps - (ОРТ)
Language : Russian
Audio #3
ID : 4
Format : AC-3
Format/Info : Audio Coding 3
Mode extension : CM (complete main)
Codec ID : A_AC3
Duration : 2h 30mn
Bit rate mode : Constant
Bit rate : 448 Kbps
Channel(s) : 6 channels
Channel positions : Front: L C R, Side: L R, LFE
Sampling rate : 48.0 KHz
Bit depth : 16 bits
Compression mode : Lossy
Stream size : 483 MiB (9%)
Title : 48 kHz, AC3 Dolby Digital, 3/2 (L,C,R,l,r) + LFE ch, 448.00 kbps - (Гланц и Королёва)
Language : Russian
Audio #4
ID : 5
Format : AC-3
Format/Info : Audio Coding 3
Mode extension : CM (complete main)
Codec ID : A_AC3
Duration : 2h 30mn
Bit rate mode : Constant
Bit rate : 448 Kbps
Channel(s) : 6 channels
Channel positions : Front: L C R, Side: L R, LFE
Sampling rate : 48.0 KHz
Bit depth : 16 bits
Compression mode : Lossy
Stream size : 483 MiB (9%)
Title : 48 kHz, AC3 Dolby Digital, 3/2 (L,C,R,l,r) + LFE ch, 448.00 kbps - (Гаврилов)
Language : Russian
Audio #5
ID : 6
Format : AC-3
Format/Info : Audio Coding 3
Mode extension : CM (complete main)
Codec ID : A_AC3
Duration : 2h 30mn
Bit rate mode : Constant
Bit rate : 192 Kbps
Channel(s) : 2 channels
Channel positions : Front: L R
Sampling rate : 48.0 KHz
Bit depth : 16 bits
Compression mode : Lossy
Stream size : 207 MiB (4%)
Title : 48 kHz, AC3 Dolby Digital, 2/0 (L,R) ch, ~192 kbps - (DVO)
Language : Russian
Audio #6
ID : 7
Format : AC-3
Format/Info : Audio Coding 3
Mode extension : CM (complete main)
Codec ID : A_AC3
Duration : 2h 30mn
Bit rate mode : Constant
Bit rate : 448 Kbps
Channel(s) : 6 channels
Channel positions : Front: L C R, Side: L R, LFE
Sampling rate : 48.0 KHz
Bit depth : 16 bits
Compression mode : Lossy
Stream size : 483 MiB (9%)
Title : 48 kHz, AC3 Dolby Digital, 3/2 (L,C,R,l,r) + LFE ch, 448.00 kbps
Language : English
Text #1
ID : 8
Format : UTF-8
Codec ID : S_TEXT/UTF8
Codec ID/Info : UTF-8 Plain Text
Language : Russian
Text #2
ID : 9
Format : UTF-8
Codec ID : S_TEXT/UTF8
Codec ID/Info : UTF-8 Plain Text
Language : English
Menu
00:00:00.000 : en:Start credits
00:03:58.321 : en:France Disposes
00:08:21.084 : en:Ship Confidences
00:10:31.381 : en:Protection Offer
00:15:24.006 : en:Closer to the Heat
00:16:58.643 : en:Attempt on Dega
00:22:14.542 : en:Arrival at Cayenne
00:25:40.414 : en:March to Prison
00:30:16.815 : en:Dealmaking/Death
00:35:01.933 : en:Croc in Kilo '40
00:40:35.850 : en:Butterfly Hunters
00:43:53.005 : en:First Escape
00:45:50.456 : en:A New Experience
00:51:21.954 : en:Solitary
00:56:38.562 : en:Give and Take
00:58:26.378 : en:Guilty
01:07:21.955 : en:Half-rations
01:09:26.662 : en:"You're Dead"
01:12:26.759 : en:Term Completed
01:17:45.911 : en:What He Wants
01:21:02.691 : en:Very Great Favor
01:24:08.335 : en:Pact With Killer
01:26:05.535 : en:"You They Own"
01:32:59.991 : en:The Escape
01:35:57.418 : en:Broken Boat/Leg
01:37:55.953 : en:Masked Rescuer
01:42:36.359 : en:Bargain for Boat
01:44:18.627 : en:Money for Journey
01:47:37.201 : en:Rough Seas
01:51:02.239 : en:Hostile Reception
01:54:34.743 : en:Prey for Islanders
02:02:55.910 : en:Butterfly's Mark
02:07:06.828 : en:Watches/Betrays
02:10:31.991 : en:Debts Paid
02:14:08.624 : en:Devil's Island
02:16:37.147 : en:The Only Ones Left
02:20:06.523 : en:An Escape Idea
02:24:07.472 : en:The Experiment
02:27:12.991 : en:Taking the Plunge/End Credits
 
Показать сообщения:    

Текущее время: Сегодня 08:58

Часовой пояс: GMT



Вы не можете начинать темы
Вы не можете отвечать на сообщения
Вы не можете редактировать свои сообщения
Вы не можете удалять свои сообщения
Вы не можете голосовать в опросах
Вы не можете прикреплять файлы к сообщениям
Вы не можете скачивать файлы