Ивановский Торрент трекер
Яндекс.Погода
 

[Цитировать]
HUNTER


Мотель Бэйтс
1-ый сезон, 1-10 серии из 10

-

  • Год производства: 2013

  • Страна: США

  • Жанр: ужасы, триллер, детектив

  • Продолжительность: ~00:45:00

  • Кол-во серий/сезонов: 1-ый сезон, 1-10 серии из 10

  • Перевод: Профессиональный (многоголосый закадровый) |LostFilm|

  • Субтитры: English-
  • Режиссер: Такер Гейтс / Tucker Gates-
  • В ролях: Кэролайн Мэтьюз, Вера Фармига, Фредди Хаймор, Джер Бернс, Мерседес Де Ла Зерда, Мэтт Эллис, Кончита Кэмпбелл, Майк Фогель, Нестор Карбонелл, У. Эрл Браун, Оливия Кук, Эммалин Эстрада, Ричард Хэрмон, Никола Пельтц, Дженна Романин, Макс Тириот, Киган Коннор Трейси, Бриттни Уилсон, Алийа О’Брайен, Александр Кэлверт и др.
    -
  • Описание: Шоу от создателей "Остаться в живых", снятое по мотивам культового фильма Альфреда Хичкока «Психо» 1960 года.
    После трагической кончины своего мужа Норма Бэйтс покупает мотель на окраине прибрежного города, чтобы начать все с чистого листа. Пока Норма и Норман устраиваются в своем новом доме, они понимают, что у внешне спокойного городка есть свои секреты. Но Бэйтсы не позволят помыкать собой и сделают что угодно, чтобы выжить и сохранить свои тайны.
    -
  • Качество видео: WEB-DL 1080p

  • Формат видео: mkv

  • Видео кодек: H.264

  • Аудио кодек: AC3

  • Видео: 1920x1080 at 23.976 fps, MPEG-4 AVC, ~5100 kbps avg

  • Аудио#1: 48 kHz, AC3, 3/2 (L,C,R,l,r) + LFE ch, ~384.00 kbps avg |LostFilm|

  • Аудио#2: 48 kHz, AC3, 3/2 (L,C,R,l,r) + LFE ch, ~384.00 kbps avg

Скриншоты

MediaInfo

Код: copyText_writeLink('this.parentNode.parentNode.nextSibling.nextSibling');
General
Unique ID : 184468612551820000893826895711215325627 (0x8AC75CCAEB7D99128FE0FBFBA11C91BB)
Complete name : D:\Торенты\Bates.Motel.S01.1080p.WEB-DL.Rus.Eng.HDCLUB\Bates.Motel.S01E02.1080p.WEB-DL.Rus.Eng.HDCLUB.mkv
Format : Matroska
Format version : Version 4 / Version 2
File size : 1.77 GiB
Duration : 42mn 52s
Overall bit rate : 5 895 Kbps
Movie name : Bates Motel [Season 1] (2013) - Release for HDCLUB
Encoded date : UTC 2013-04-18 19:01:44
Writing application : mkvmerge v6.1.0 ('Old Devil') built on Mar 2 2013 14:32:37
Writing library : libebml v1.3.0 + libmatroska v1.4.0
Video
ID : 1
Format : AVC
Format/Info : Advanced Video Codec
Format profile : High@L4.0
Format settings, CABAC : Yes
Format settings, ReFrames : 4 frames
Codec ID : V_MPEG4/ISO/AVC
Duration : 42mn 52s
Bit rate : 5 010 Kbps
Width : 1 920 pixels
Height : 1 080 pixels
Display aspect ratio : 16:9
Frame rate mode : Constant
Frame rate : 23.976 fps
Color space : YUV
Chroma subsampling : 4:2:0
Bit depth : 8 bits
Scan type : Progressive
Bits/(Pixel*Frame) : 0.101
Stream size : 1.50 GiB (85%)
Title : Bates Motel 1x02: Nice Town You Picked, Norma... / Хороший городок ты выбрала, Норма... - Release for HDCLUB
Language : English
Default : Yes
Forced : No
Color primaries : BT.709
Transfer characteristics : BT.709
Matrix coefficients : BT.709
Audio #1
ID : 2
Format : AC-3
Format/Info : Audio Coding 3
Mode extension : CM (complete main)
Format settings, Endianness : Big
Codec ID : A_AC3
Duration : 42mn 52s
Bit rate mode : Constant
Bit rate : 384 Kbps
Channel(s) : 6 channels
Channel positions : Front: L C R, Side: L R, LFE
Sampling rate : 48.0 KHz
Bit depth : 16 bits
Compression mode : Lossy
Stream size : 118 MiB (7%)
Title : LostFilm
Language : Russian
Default : Yes
Forced : No
Audio #2
ID : 3
Format : AC-3
Format/Info : Audio Coding 3
Mode extension : CM (complete main)
Format settings, Endianness : Big
Codec ID : A_AC3
Duration : 42mn 52s
Bit rate mode : Constant
Bit rate : 384 Kbps
Channel(s) : 6 channels
Channel positions : Front: L C R, Side: L R, LFE
Sampling rate : 48.0 KHz
Bit depth : 16 bits
Compression mode : Lossy
Stream size : 118 MiB (7%)
Language : English
Default : No
Forced : No
Text
ID : 4
Format : UTF-8
Codec ID : S_TEXT/UTF8
Codec ID/Info : UTF-8 Plain Text
Language : English
Default : No
Forced : No

Внимание! Раздача ведётся путём добавления новых серий

Внимание! Раздача ведётся путём добавления новых серий; при каждом добавлении создётся новый торрент. Чтобы начать докачку новой серии, пользователям необходимо сделать следующее:
  • остановить скачивание,
  • удалить старый торрент у себя из клиента (старые серии удалять не надо),
  • скачать новый торрент и запустить его у себя в клиенте вместо старого, при этом указать клиенту путь в старую папку куда и должно происходить скачивание новых серий.
Ваш клиент при этом должен произвести хеширование (проверку) старой папки (если не производит сам - помогите ему сделать это), и будет докачивать только те серии которых у вас ещё нет. Старые серии при этом не удаляются, а продолжают раздаваться!
Eсли вы уже удалили старые серии, то предотвратить повторную закачку старых серий можно, отжав галочку в соответсвующих местах при запуске нового торрента. По возможности, желательно не удалять старые серии как можно дольше, чтобы релизёр не столько продолжал раздавать старые серии, а смог сконцентрироваться на новых.
Показать сообщения:    

Текущее время: 23-Окт 19:34

Часовой пояс: UTC - 1


Вы не можете начинать темы
Вы не можете отвечать на сообщения
Вы не можете редактировать свои сообщения
Вы не можете удалять свои сообщения
Вы не можете голосовать в опросах
Вы не можете прикреплять файлы к сообщениям
Вы не можете скачивать файлы

!ВНИМАНИЕ!
Сайт не предоставляет электронные версии произведений, а занимается лишь коллекционированием и каталогизацией ссылок, присылаемых и публикуемых на форуме нашими читателями. Если вы являетесь правообладателем какого-либо представленного материала и не желаете, чтобы ссылка на него находилась в нашем каталоге, свяжитесь с нами, и мы незамедлительно удалим ее. Файлы для обмена на трекере предоставлены пользователями сайта, и администрация не несет ответственности за их содержание. Просьба не заливать файлы, защищенные авторскими правами, а также файлы нелегального содержания!