Важное объявление!
У Нас Все раздачи мультитрекерные, при нуле пиров в релизах, можете смело вставать на закачку!
Статистика раздачи
Размер:     |    Зарегистрирован:     |    Скачан:     |   
Нет
 
     
 
 
Автор Сообщение

HUNTER

Стаж:
5 лет
Сообщений:
68415

Репутация: 101

[+] [-]
Вне форума [Профиль] [ЛС]

Blu-ray disc, 32.55 GB / 2.91 GB / 2.17 GB / 1.46 GB / 1.09 GB-Москва слезам не верит-
Жанр: Драма, Мелодрама, Комедия
Студия:: Мосфильм
Год выпуска: 1979
Продолжительность: 01:06:50 + 01:21:26-Режиссёр: Владимир Меньшов-В ролях: Вера Алентова, Ирина Муравьёва, Алексей Баталов, Раиса Рязанова, Александр Фатюшин, Борис Сморчков, Виктор Уральский, Валентина Ушакова, Юрий Васильев, Евгения Ханаева, Зоя Фёдорова, Наталья Вавилова, Лия Ахеджакова, Олег Табаков, Владимир Басов, Владислав Матвеев, Владимир Гусев, Муза Крепкогорская, Татьяна Конюхова, Иннокентий Смоктуновский, Георгий Юматов, Леонид Харитонов, Павел Рудаков, Вениамин Нечаев, Лариса Барабанова, Гарри Бардин, Ирина Березина, Михаил Бочаров, Александр Бородянский, Лариса Данилина, Александра Данилова, Александра Денисова, Любовь Калюжная, Виктор Лазарев, Виктор Незнанов, Татьяна Никитина, Сергей Никитин, Елена Вольская, Инна Выходцева, Геннадий Ялович, Александр Жиль...-Описание: Москва пятидесятых годов. Три молодые провинциалки приезжают в Москву в поисках того, что ищут люди во всех столицах мира — любви, счастья и достатка. Их судьбы складываются именно так, как предполагает характер каждой из девушек.
Антонина выходит замуж, растит детей, любит мужа. Людмиле Москва представляется лотереей, в которой она должна выиграть свое особенное счастье. Катерина же — отчаянно влюбляется, но избранник ее оставляет. Однако она не опускает руки, в одиночку растит дочь и к тому же успевает сделать блестящую карьеру. В сорок лет судьба дарит ей встречу с прекрасным человеком и настоящую любовь…-Доп. информация:
Релиз от Автор рипа: Deep Fusion- -Качество видео: BDRip 720p / источник Blu-Ray
Контейнер: MKV
Видео: AVC, 946 x 720 (4/3), 23.976 fps, 5 100 Kbps (0.298 bit/pixel)
Аудио: AC-3, 48.0 KHz, 6 ch, 640 Kbps, CBR (Russian)

MediaInfo

Формат : Matroska
Версия формата : Version 2
Размер файла : 2,68 Гбайт
Продолжительность : 1 ч. 6 м.
Общий поток : 5739 Кбит/сек
Дата кодирования : UTC 2012-12-07 19:48:32
Программа кодирования : mkvmerge v5.5.0 ('Healer') built on Apr 6 2012 21:43:24
Библиотека кодирования : libebml v1.2.3 + libmatroska v1.3.0
Видео
Идентификатор : 1
Формат : AVC
Формат/Информация : Advanced Video Codec
Профиль формата : High@L4.1
Параметр CABAC формата : Да
Параметр ReFrames формата : 9 кадров
Идентификатор кодека : V_MPEG4/ISO/AVC
Продолжительность : 1 ч. 6 м.
Битрейт : 5100 Кбит/сек
Ширина : 946 пикселей
Высота : 720 пикселей
Соотношение сторон : 4:3
Частота кадров : 23,976 кадра/сек
Цветовое пространство : YUV
Субдискретизация насыщенности : 4:2:0
Битовая глубина : 8 бит
Тип развёртки : Прогрессивная
Бит/(Пиксели*Кадры) : 0.312
Размер потока : 2,33 Гбайт (87%)
Заголовок : Москва слезам не верит / Moskva slezam ne verit (1979) BDRip 720p | HQ-ViDEO | Encode: Deep Fusion
Библиотека кодирования : x264 core 125 r2200 999b753
Настройки программы : cabac=1 / ref=9 / deblock=1:0:0 / analyse=0x3:0x113 / me=umh / subme=11 / psy=1 / psy_rd=1.09:0.09 / mixed_ref=1 / me_range=48 / chroma_me=1 / trellis=2 / 8x8dct=1 / cqm=0 / deadzone=21,11 / fast_pskip=0 / chroma_qp_offset=-5 / threads=6 / lookahead_threads=1 / sliced_threads=0 / nr=0 / decimate=1 / interlaced=0 / bluray_compat=0 / constrained_intra=0 / bframes=8 / b_pyramid=2 / b_adapt=2 / b_bias=0 / direct=1 / weightb=1 / open_gop=0 / weightp=2 / keyint=240 / keyint_min=23 / scenecut=40 / intra_refresh=0 / rc_lookahead=60 / rc=2pass / mbtree=0 / bitrate=5100 / ratetol=1.0 / qcomp=0.60 / qpmin=10 / qpmax=69 / qpstep=4 / cplxblur=20.0 / qblur=0.5 / vbv_maxrate=62500 / vbv_bufsize=50000 / nal_hrd=none / ip_ratio=1.40 / pb_ratio=1.30 / aq=1:0.80
Язык : Russian
Default : Да
Forced : Нет
Аудио
Идентификатор : 2
Формат : AC-3
Формат/Информация : Audio Coding 3
Расширение режима : CM (complete main)
Параметр Endianness формата : Big
Идентификатор кодека : A_AC3
Продолжительность : 1 ч. 6 м.
Вид битрейта : Постоянный
Битрейт : 640 Кбит/сек
Каналы : 6 каналов
Расположение каналов : Front: L C R, Side: L R, LFE
Частота : 48,0 КГц
Битовая глубина : 16 бит
Метод сжатия : С потерями
Размер потока : 306 Мбайт (11%)
Заголовок : Оригинальная звуковая дорожка
Язык : Russian
Default : Да
Forced : Нет
Меню
00:00:00.000 : en:Chapter 01
00:04:00.406 : en:Chapter 02
00:08:27.256 : en:Chapter 03
00:09:44.917 : en:Chapter 04
00:12:57.067 : en:Chapter 05
00:15:17.917 : en:Chapter 06
00:22:54.373 : en:Chapter 07
00:26:51.943 : en:Chapter 08
00:29:58.338 : en:Chapter 09
00:35:52.400 : en:Chapter 10
00:42:41.475 : en:Chapter 11
00:46:03.343 : en:Chapter 12
00:48:36.079 : en:Chapter 13
00:55:13.351 : en:Chapter 14
01:01:13.002 : en:Chapter 15
01:04:29.532 : en:Chapter 16
-
Формат : Matroska
Версия формата : Version 2
Размер файла : 3,27 Гбайт
Продолжительность : 1 ч. 21 м.
Общий поток : 5740 Кбит/сек
Дата кодирования : UTC 2012-12-07 19:52:56
Программа кодирования : mkvmerge v5.5.0 ('Healer') built on Apr 6 2012 21:43:24
Библиотека кодирования : libebml v1.2.3 + libmatroska v1.3.0
Видео
Идентификатор : 1
Формат : AVC
Формат/Информация : Advanced Video Codec
Профиль формата : High@L4.1
Параметр CABAC формата : Да
Параметр ReFrames формата : 9 кадров
Идентификатор кодека : V_MPEG4/ISO/AVC
Продолжительность : 1 ч. 21 м.
Битрейт : 5100 Кбит/сек
Ширина : 946 пикселей
Высота : 720 пикселей
Соотношение сторон : 4:3
Частота кадров : 23,976 кадра/сек
Цветовое пространство : YUV
Субдискретизация насыщенности : 4:2:0
Битовая глубина : 8 бит
Тип развёртки : Прогрессивная
Бит/(Пиксели*Кадры) : 0.312
Размер потока : 2,84 Гбайт (87%)
Заголовок : Москва слезам не верит / Moskva slezam ne verit (1979) BDRip 720p | HQ-ViDEO | Encode: Deep Fusion
Библиотека кодирования : x264 core 125 r2200 999b753
Настройки программы : cabac=1 / ref=9 / deblock=1:0:0 / analyse=0x3:0x113 / me=umh / subme=11 / psy=1 / psy_rd=1.09:0.09 / mixed_ref=1 / me_range=48 / chroma_me=1 / trellis=2 / 8x8dct=1 / cqm=0 / deadzone=21,11 / fast_pskip=0 / chroma_qp_offset=-5 / threads=6 / lookahead_threads=1 / sliced_threads=0 / nr=0 / decimate=1 / interlaced=0 / bluray_compat=0 / constrained_intra=0 / bframes=8 / b_pyramid=2 / b_adapt=2 / b_bias=0 / direct=1 / weightb=1 / open_gop=0 / weightp=2 / keyint=240 / keyint_min=23 / scenecut=40 / intra_refresh=0 / rc_lookahead=60 / rc=2pass / mbtree=0 / bitrate=5100 / ratetol=1.0 / qcomp=0.60 / qpmin=10 / qpmax=69 / qpstep=4 / cplxblur=20.0 / qblur=0.5 / vbv_maxrate=62500 / vbv_bufsize=50000 / nal_hrd=none / ip_ratio=1.40 / pb_ratio=1.30 / aq=1:0.80
Язык : Russian
Default : Да
Forced : Нет
Аудио
Идентификатор : 2
Формат : AC-3
Формат/Информация : Audio Coding 3
Расширение режима : CM (complete main)
Параметр Endianness формата : Big
Идентификатор кодека : A_AC3
Продолжительность : 1 ч. 21 м.
Вид битрейта : Постоянный
Битрейт : 640 Кбит/сек
Каналы : 6 каналов
Расположение каналов : Front: L C R, Side: L R, LFE
Частота : 48,0 КГц
Битовая глубина : 16 бит
Метод сжатия : С потерями
Размер потока : 373 Мбайт (11%)
Заголовок : Оригинальная звуковая дорожка
Язык : Russian
Default : Да
Forced : Нет
Меню
01:06:50.631 : en:Chapter 17
01:13:54.346 : en:Chapter 18
01:14:38.348 : en:Chapter 19
01:17:12.586 : en:Chapter 20
01:21:11.074 : en:Chapter 21
01:28:33.975 : en:Chapter 22
01:35:22.925 : en:Chapter 23
01:40:35.738 : en:Chapter 24
01:46:30.884 : en:Chapter 25
01:54:40.999 : en:Chapter 26
01:57:20.616 : en:Chapter 27
02:00:59.752 : en:Chapter 28
02:04:17.408 : en:Chapter 29
02:10:55.806 : en:Chapter 30
02:18:33.596 : en:Chapter 31
02:22:05.892 : en:Chapter 32

Log x264

Код:
-[NoImage] x264 [info]: frame I:692   Avg QP:16.73  size:119515
-[NoImage] x264 [info]: frame P:21941 Avg QP:17.98  size: 60790
-[NoImage] x264 [info]: frame B:94534 Avg QP:19.94  size: 17940
-[NoImage] x264 [info]: consecutive B-frames:  0.8%  0.8%  2.6% 11.2% 15.8% 62.4%  5.7%  0.3%  0.3%
-[NoImage] x264 [info]: mb I  I16..4:  7.5% 73.1% 19.4%
-[NoImage] x264 [info]: mb P  I16..4:  0.6% 16.5%  2.1%  P16..4: 26.7% 36.5% 17.4%  0.0%  0.0%    skip: 0.2%
-[NoImage] x264 [info]: mb B  I16..4:  0.0%  1.5%  0.4%  B16..8: 35.3% 22.6%  4.9%  direct:11.5%  skip:23.7%  L0:35.0% L1:47.6% BI:17.5%
-[NoImage] x264 [info]: final ratefactor: 16.26
-[NoImage] x264 [info]: 8x8 transform intra:81.6% inter:54.9%
-[NoImage] x264 [info]: coded y,uvDC,uvAC intra: 95.3% 93.6% 85.3% inter: 44.2% 33.5% 8.4%
-[NoImage] x264 [info]: i16 v,h,dc,p:  6% 10% 33% 51%
-[NoImage] x264 [info]: i8 v,h,dc,ddl,ddr,vr,hd,vl,hu: 11% 10% 14%  9% 12% 11% 11% 11% 12%
-[NoImage] x264 [info]: i4 v,h,dc,ddl,ddr,vr,hd,vl,hu:  5% 46%  4%  5%  9%  8%  9%  6%  9%
-[NoImage] x264 [info]: i8c dc,h,v,p: 45% 25% 20% 11%
-[NoImage] x264 [info]: Weighted P-Frames: Y:7.6% UV:1.5%
-[NoImage] x264 [info]: ref P L0: 37.2% 13.3% 20.2%  6.7%  7.1%  4.2%  5.0%  2.5%  3.3%  0.4%  0.0%
-[NoImage] x264 [info]: ref B L0: 87.3%  6.6%  2.2%  1.4%  0.9%  0.8%  0.5%  0.3%
-[NoImage] x264 [info]: ref B L1: 98.1%  1.9%
-[NoImage] x264 [info]: kb/s:5095.25
Код:
-[NoImage] x264 [info]: frame I:692   Avg QP:17.17  size:113856
-[NoImage] x264 [info]: frame P:21941 Avg QP:18.96  size: 50555
-[NoImage] x264 [info]: frame B:94534 Avg QP:19.72  size: 20375
-[NoImage] x264 [info]: consecutive B-frames:  0.8%  0.8%  2.6% 11.2% 15.8% 62.4%  5.7%  0.3%  0.3%
-[NoImage] x264 [info]: mb I  I16..4:  6.2% 75.2% 18.6%
-[NoImage] x264 [info]: mb P  I16..4:  0.3% 13.1%  1.6%  P16..4: 29.9% 38.9% 15.8%  0.0%  0.0%    skip: 0.4%
-[NoImage] x264 [info]: mb B  I16..4:  0.0%  1.7%  0.5%  B16..8: 35.7% 22.8%  5.0%  direct:12.4%  skip:21.8%  L0:35.6% L1:47.1% BI:17.2%
-[NoImage] x264 [info]: 8x8 transform intra:82.1% inter:55.5%
-[NoImage] x264 [info]: coded y,uvDC,uvAC intra: 94.7% 93.0% 82.7% inter: 47.1% 35.7% 8.2%
-[NoImage] x264 [info]: i16 v,h,dc,p:  9% 17% 28% 46%
-[NoImage] x264 [info]: i8 v,h,dc,ddl,ddr,vr,hd,vl,hu: 10% 10% 13%  9% 12% 11% 11% 11% 12%
-[NoImage] x264 [info]: i4 v,h,dc,ddl,ddr,vr,hd,vl,hu:  5% 48%  5%  4%  8%  7%  8%  6%  9%
-[NoImage] x264 [info]: i8c dc,h,v,p: 43% 26% 20% 11%
-[NoImage] x264 [info]: Weighted P-Frames: Y:7.9% UV:1.5%
-[NoImage] x264 [info]: ref P L0: 42.4% 11.7% 16.9%  8.2%  6.4%  5.2%  4.3%  2.6%  2.1%  0.2%  0.0%
-[NoImage] x264 [info]: ref B L0: 86.3%  7.2%  2.5%  1.4%  1.0%  0.8%  0.5%  0.2%
-[NoImage] x264 [info]: ref B L1: 98.0%  2.0%
-[NoImage] x264 [info]: kb/s:5098.00

Скриншоты


_________________
Показать сообщения:    

Текущее время: Сегодня 04:58

Часовой пояс: GMT



Вы не можете начинать темы
Вы не можете отвечать на сообщения
Вы не можете редактировать свои сообщения
Вы не можете удалять свои сообщения
Вы не можете голосовать в опросах
Вы не можете прикреплять файлы к сообщениям
Вы не можете скачивать файлы