Важное объявление!
У Нас Все раздачи мультитрекерные, при нуле пиров в релизах, можете смело вставать на закачку!
 
Автор Сообщение

Game

Стаж:
4 года 3 месяца
Сообщений:
2074

Репутация: 107

[+] [-]
Вне форума [Профиль] [ЛС]

Морской пехотинец 3: Тыл / The Marine 3: Homefront
Страна: США
Жанр: Боевик
Год выпуска: 2013
Продолжительность: 1:30:09
Перевод: Любительский (многоголосый закадровый) Гараж Дубляж
Cубтитры: нет
Оригинальная аудиодорожка: нет
Режиссер: Скотт Вайпер / Scott Wiper
В ролях: Майк Мизанин, Нил МакДонаф, Джаред Кисо, Джеффри Баллард, Бен Коттон, Стив Бачич, Шон Тайсон, Дарси Лори, Алекс Паунович, Николя Андерсон...
Описание: Солдат-морпех, приехавший домой на время отпуска, оказывается в эпицентре напряженных событий. Ему приходится рисковать жизнью, чтобы спасти свою сестру, которую похитила вооруженная банда, готовящая террористическую атаку на один из бизнес-центров Сиэтла.
Качество видео: HDRip
Формат видео: Avi
Сэмпл: http://rusfolder.com/35520695
Видео: 640x352 (1.82:1), 24 fps, XviD build 50 ~947 kbps avg, 0.17 bit/pixel
Аудио: 48 kHz, MPEG Layer 2 ch, ~192.00 kbps avg

MediaInfo

General
Complete name: G:\Фильмы\Морской Пехотинец 3.Тыл (Гараж Дубляж).avi
Format: AVI
Format/Info: Audio Video Interleave
File size: 700 MiB
Duration: 1h 30mn
Overall bit rate: 1 085 Kbps
Writing application: VirtualDubMod 1.5.10.3 | www.virtualdub-fr.org || (build 2550/release)
Writing library: VirtualDub build 32842/release
Video
ID: 0
Format: MPEG-4 Visual
Format profile: Advanced Simple@L5
Format settings, BVOP: Yes
Format settings, QPel: No
Format settings, GMC: No warppoints
Format settings, Matrix: Default (MPEG)
Codec ID: XVID
Codec ID/Hint: XviD
Duration: 1h 30mn
Bit rate: 948 Kbps
Width: 640 pixels
Height: 352 pixels
Display aspect ratio: 16:9
Frame rate: 23.976 fps
Resolution: 8 bits
Colorimetry: 4:2:0
Scan type: Progressive
Bits/(Pixel*Frame): 0.175
Stream size: 611 MiB (87%)
Writing library: XviD 1.2.1 (UTC 2008-12-04)
Audio
ID: 1
Format : MPEG Audio
Format version: Version 1
Format profile: Layer 3
Mode: Joint stereo
Format_Settings_ModeExtension: MS Stereo
Codec ID: 55
Codec ID/Hint: MP3
Duration: 1h 30mn
Bit rate mode: Constant
Bit rate: 128 Kbps
Channel(s): 2 channels
Sampling rate: 48.0 KHz
Stream size: 82.5 MiB (12%)
Alignment: Split accross interleaves
Interleave, duration: 42 ms (1.00 video frame)
Interleave, preload duration: 500 ms

Скриншот c названием фильма

Скриншоты

Показать сообщения:    

Текущее время: Сегодня 06:07

Часовой пояс: GMT



Вы не можете начинать темы
Вы не можете отвечать на сообщения
Вы не можете редактировать свои сообщения
Вы не можете удалять свои сообщения
Вы не можете голосовать в опросах
Вы не можете прикреплять файлы к сообщениям
Вы не можете скачивать файлы
Наши партнеры: интернет магазин Ивановского трикотажа textilla.ru