Важное объявление!
У Нас Все раздачи мультитрекерные, при нуле пиров в релизах, можете смело вставать на закачку!
Статистика раздачи
Размер:     |    Зарегистрирован:     |    Скачан:     |   
Нет
 
     
 
 
Автор Сообщение

HUNTER

Стаж:
5 лет
Сообщений:
67935

Репутация: 101

[+] [-]
Вне форума [Профиль] [ЛС]

Морское приключение / Boat Trip / Unrated
Страна: США, Германия
Жанр: комедия
Год выпуска: 2002
Продолжительность: 01:36:59
Перевод 1: Профессиональный (дублированный)
Перевод 2: Профессиональный (многоголосый закадровый)
Перевод 3: Профессиональный (многоголосый закадровый)
Перевод 4: Профессиональный (многоголосый закадровый)
Перевод 5: Авторский (одноголосый закадровый) Евгений Рудой
Cубтитры: русские, русские форсированные (на фрагменты без перевода), английские
Оригинальная аудиодорожка: английский
Режиссер: Морт Нэтан / Mort Nathan
В ролях: Кьюба Гудинг мл., Оратио Санс, Роселин Санчес, Вивика А. Фокс, Морис Годен, Роджер Мур, Лин Шэй, Виктория Сильвстедт, Кен Хадсон Кэмпбелл, Зен Геснер...
Описание: Покинутый любимой девушкой, Джерри получает от своего друга предложение зализать раны и отправиться в морское путешествие на корабле, битком набитом роскошными девушками.
Проблемы начинаются с того момента, когда друзья понимают, что это круиз только для мужчин, среди которых — эксцентричный миллионер, положивший глаз на Ника. Но не все так плохо и жизнь начинает приобретать яркие краски и бурлить после того, как корабль подбирает шлюпку с великолепными девушками из Шведской Бикини Команды…
Доп. информация: Дубляж с раздачи Diablo. Дорожка №2 с DVD. Дорожка №3 собрана с чистых голосов. Дорожки №4,5 с раздачи teko, настоящего 5.1 там не наблюдается, поэтому звук перекодирован в стерео. Работа со звуком - Dreven.
Сэмпл: http://multi-up.com/1072245
Тип релиза: WEB-DL 720p
Контейнер: MKV
Видео: 1280x718 (16:9), 23.976 fps, AVC, ~4172 Kbps, 0.189 bits/pixel
Аудио 1: Russian, 48.0 KHz, AC3, 2 ch, 192 Kbps
Аудио 2: Russian, 48.0 KHz, AC3, 6 ch, 448 Kbps
Аудио 3: Russian, 48.0 KHz, AC3, 6 ch, 384 Kbps
Аудио 4: Russian, 48.0 KHz, AC3, 2 ch, 192 Kbps
Аудио 5: Russian, 48.0 KHz, AC3, 2 ch, 192 Kbps - Евгений Рудой
Аудио 6: English, 48.0 KHz, AC3, 6 ch, 384 Kbps

MediaInfo

General
Unique ID : 189848436169359999217207328519582685588 (0x8ED37A9361B5943B8A7DCDF83EAC9994)
Complete name : D:\Boat Trip [Unrated] WEB-DL 720p.mkv
Format : Matroska
Format version : Version 4 / Version 2
File size : 4.12 GiB
Duration : 1h 36mn
Overall bit rate : 6 085 Kbps
Movie name :
Encoded date : UTC 2015-10-20 11:16:22
Writing application : mkvmerge v8.4.0 ('A better way to fly') 64bit
Writing library : libebml v1.3.1 + libmatroska v1.4.2
DURATION : 01:32:34.710000000
NUMBER_OF_FRAMES : 1119
NUMBER_OF_BYTES : 84373
_STATISTICS_WRITING_APP : mkvmerge v8.4.0 ('A better way to fly') 64bit
_STATISTICS_WRITING_DATE_UT : 2015-10-20 11:16:22
_STATISTICS_TAGS : BPS DURATION NUMBER_OF_FRAMES NUMBER_OF_BYTES
Video
ID : 1
Format : AVC
Format/Info : Advanced Video Codec
Format profile : High@L3.1
Format settings, CABAC : No
Format settings, ReFrames : 2 frames
Codec ID : V_MPEG4/ISO/AVC
Duration : 1h 36mn
Bit rate : 4 172 Kbps
Width : 1 280 pixels
Height : 718 pixels
Display aspect ratio : 16:9
Frame rate mode : Constant
Frame rate : 23.976 fps
Color space : YUV
Chroma subsampling : 4:2:0
Bit depth : 8 bits
Scan type : Progressive
Bits/(Pixel*Frame) : 0.189
Stream size : 2.83 GiB (69%)
Language : English
Default : Yes
Forced : No
Color range : Limited
Color primaries : BT.709
Transfer characteristics : BT.709
Matrix coefficients : BT.709
Audio #1
ID : 2
Format : AC-3
Format/Info : Audio Coding 3
Mode extension : CM (complete main)
Format settings, Endianness : Big
Codec ID : A_AC3
Duration : 1h 36mn
Bit rate mode : Constant
Bit rate : 192 Kbps
Channel(s) : 2 channels
Channel positions : Front: L R
Sampling rate : 48.0 KHz
Compression mode : Lossy
Stream size : 133 MiB (3%)
Language : Russian
Default : Yes
Forced : No
Audio #2
ID : 3
Format : AC-3
Format/Info : Audio Coding 3
Mode extension : CM (complete main)
Format settings, Endianness : Big
Codec ID : A_AC3
Duration : 1h 36mn
Bit rate mode : Constant
Bit rate : 448 Kbps
Channel(s) : 6 channels
Channel positions : Front: L C R, Side: L R, LFE
Sampling rate : 48.0 KHz
Compression mode : Lossy
Stream size : 311 MiB (7%)
Language : Russian
Default : No
Forced : No
Audio #3
ID : 4
Format : AC-3
Format/Info : Audio Coding 3
Mode extension : CM (complete main)
Format settings, Endianness : Big
Codec ID : A_AC3
Duration : 1h 36mn
Bit rate mode : Constant
Bit rate : 384 Kbps
Channel(s) : 6 channels
Channel positions : Front: L C R, Side: L R, LFE
Sampling rate : 48.0 KHz
Compression mode : Lossy
Stream size : 266 MiB (6%)
Language : Russian
Default : No
Forced : No
Audio #4
ID : 5
Format : AC-3
Format/Info : Audio Coding 3
Mode extension : CM (complete main)
Format settings, Endianness : Big
Codec ID : A_AC3
Duration : 1h 36mn
Bit rate mode : Constant
Bit rate : 192 Kbps
Channel(s) : 2 channels
Channel positions : Front: L R
Sampling rate : 48.0 KHz
Compression mode : Lossy
Stream size : 133 MiB (3%)
Language : Russian
Default : No
Forced : No
Audio #5
ID : 6
Format : AC-3
Format/Info : Audio Coding 3
Mode extension : CM (complete main)
Format settings, Endianness : Big
Codec ID : A_AC3
Duration : 1h 36mn
Bit rate mode : Constant
Bit rate : 192 Kbps
Channel(s) : 2 channels
Channel positions : Front: L R
Sampling rate : 48.0 KHz
Compression mode : Lossy
Stream size : 133 MiB (3%)
Title : Евгений Рудой
Language : Russian
Default : No
Forced : No
Audio #6
ID : 7
Format : AC-3
Format/Info : Audio Coding 3
Mode extension : CM (complete main)
Format settings, Endianness : Big
Codec ID : A_AC3
Duration : 1h 36mn
Bit rate mode : Constant
Bit rate : 384 Kbps
Channel(s) : 6 channels
Channel positions : Front: L C R, Side: L R, LFE
Sampling rate : 48.0 KHz
Compression mode : Lossy
Stream size : 266 MiB (6%)
Language : English
Default : No
Forced : No
Text #1
ID : 8
Format : UTF-8
Codec ID : S_TEXT/UTF8
Codec ID/Info : UTF-8 Plain Text
Title : Forced
Language : Russian
Default : Yes
Forced : No
Text #2
ID : 9
Format : UTF-8
Codec ID : S_TEXT/UTF8
Codec ID/Info : UTF-8 Plain Text
Language : Russian
Default : No
Forced : No
Text #3
ID : 10
Format : UTF-8
Codec ID : S_TEXT/UTF8
Codec ID/Info : UTF-8 Plain Text
Language : English
Default : No
Forced : No
Menu
00:00:00.000 : en:Chapter 1
00:01:44.000 : en:Chapter 2
00:09:27.000 : en:Chapter 3
00:18:51.000 : en:Chapter 4
00:25:41.000 : en:Chapter 5
00:33:57.000 : en:Chapter 6
00:41:23.000 : en:Chapter 7
00:51:00.000 : en:Chapter 8
01:00:44.000 : en:Chapter 9
01:11:36.000 : en:Chapter 10
01:20:15.000 : en:Chapter 11
01:27:38.000 : en:Chapter 12
01:32:56.000 : en:Chapter 13

Скриншоты


_________________
Показать сообщения:    

Текущее время: Сегодня 10:51

Часовой пояс: GMT



Вы не можете начинать темы
Вы не можете отвечать на сообщения
Вы не можете редактировать свои сообщения
Вы не можете удалять свои сообщения
Вы не можете голосовать в опросах
Вы не можете прикреплять файлы к сообщениям
Вы не можете скачивать файлы