Важное объявление!
У Нас Все раздачи мультитрекерные, при нуле пиров в релизах, можете смело вставать на закачку!
 
Автор Сообщение

HUNTER

Стаж:
4 года 7 месяцев
Сообщений:
61545

Репутация: 101

[+] [-]
Вне форума [Профиль] [ЛС]

Мордашка / Baby Face
Страна: США
Жанр: драма, мелодрама
Год выпуска: 1933
Продолжительность: 01:15:55
Перевод: Профессиональный (двухголосый закадровый) Светла
Cубтитры: русские, английские
Оригинальная аудиодорожка: английский
Режиссер: Альфред Э. Грин / Alfred E. Green
В ролях: Барбара Стэнвик, Джордж Брент, Дональд Кук, Альфонсе Этье, Генри Колкер, Маргарет Линдсей, Артур Хол, Джон Уэйн, Роберт Бэррат, Дагласс Дамбрилл
Описание: Лили Пауэрс работает официанткой в баре собственного отца. Отец беспринципный человек, готовый ради выгоды продать и собственную дочь, что он и делает, заставляя ее уединяться с клиентами с 14 лет. Однажды ее отец погибает во время несчастного случая. Она решает с подружкой Чико уехать зайцами в товарном вагоне.
Там их застает работник железной дороги и грозит сдать в полицию, но он сражен доступностью юной соблазнительницы. Попав в Нью-Йорк, девушка всеми правдами и неправдами сначала устраивается на работу, а потом активизирует свое восхождение наверх, не имея никакого опыта, но зато владея могучим оружием обольщения…
Доп. информация:


За русскую дорожку спасибо egoleshik
За русские субтитры спасибо sekassir
Сэмпл: http://sendfile.su/1020377
Тип релиза: WEB-DL 720p
Контейнер: MKV
Видео: AVC, 990x720, L3.1, 23.976fps, 3811kbps
Аудио 1: Russian: AC3, 48000Hz, 2ch, 192kbps
Аудио 2: English: AC3, 48000Hz, 1ch, 192kbps - DVD
Аудио 3: English: AAC, 48000Hz, 2ch, 136kbps - WEB-DL
Формат субтитров: softsub (SRT)

MediaInfo

Общее
Уникальный идентификатор : 175606061597052661232054942164991041925 (0x841C7F4B6B82BACA81A7110E253B6185)
Полное имя : T:\Baby Face (WEB-DL 720p).mkv
Формат : Matroska
Версия формата : Version 4 / Version 2
Размер файла : 2,30 Гбайт
Продолжительность : 1 ч. 15 м.
Общий поток : 4332 Кбит/сек
Дата кодирования : UTC 2014-09-04 07:54:09
Программа кодирования : mkvmerge v6.9.1 ('Blue Panther') 64bit built on Apr 18 2014 18:23:38
Библиотека кодирования : libebml v1.3.0 + libmatroska v1.4.1
Видео
Идентификатор : 1
Формат : AVC
Формат/Информация : Advanced Video Codec
Профиль формата : High@L3.1
Параметр CABAC формата : Нет
Параметр ReFrames формата : 2 кадра
Идентификатор кодека : V_MPEG4/ISO/AVC
Продолжительность : 1 ч. 15 м.
Ширина : 990 пикселей
Высота : 720 пикселей
Соотношение сторон : 1,375
Режим частоты кадров : Постоянный
Частота кадров : 23,976 кадра/сек
Цветовое пространство : YUV
Субдискретизация насыщенности : 4:2:0
Битовая глубина : 8 бит
Тип развёртки : Прогрессивная
Язык : English
Default : Да
Forced : Нет
Основные цвета : BT.709
Характеристики трансфера : BT.709
Коэффициенты матрицы : BT.709
Аудио #1
Идентификатор : 2
Формат : AC-3
Формат/Информация : Audio Coding 3
Расширение режима : CM (complete main)
Параметр Endianness формата : Big
Идентификатор кодека : A_AC3
Продолжительность : 1 ч. 15 м.
Вид битрейта : Постоянный
Битрейт : 192 Кбит/сек
Каналы : 2 канала
Расположение каналов : Front: L R
Частота : 48,0 КГц
Битовая глубина : 16 бит
Метод сжатия : С потерями
Размер потока : 104 Мбайт (4%)
Заголовок : Светла
Язык : Russian
Default : Да
Forced : Нет
Аудио #2
Идентификатор : 3
Формат : AC-3
Формат/Информация : Audio Coding 3
Расширение режима : CM (complete main)
Параметр Endianness формата : Big
Идентификатор кодека : A_AC3
Продолжительность : 1 ч. 15 м.
Вид битрейта : Постоянный
Битрейт : 192 Кбит/сек
Каналы : 1 канал
Расположение каналов : Front: C
Частота : 48,0 КГц
Битовая глубина : 16 бит
Метод сжатия : С потерями
Размер потока : 104 Мбайт (4%)
Заголовок : DVD
Язык : English
Default : Нет
Forced : Нет
Аудио #3
Идентификатор : 4
Формат : AAC
Формат/Информация : Advanced Audio Codec
Профиль формата : LC
Идентификатор кодека : A_AAC
Продолжительность : 1 ч. 15 м.
Каналы : 2 канала
Расположение каналов : Front: L R
Частота : 48,0 КГц
Метод сжатия : С потерями
Заголовок : WEB-DL
Язык : English
Default : Нет
Forced : Нет
Текст #1
Идентификатор : 5
Формат : UTF-8
Идентификатор кодека : S_TEXT/UTF8
Идентификатор кодека/Информация : UTF-8 Plain Text
Язык : Russian
Default : Нет
Forced : Нет
Текст #2
Идентификатор : 6
Формат : UTF-8
Идентификатор кодека : S_TEXT/UTF8
Идентификатор кодека/Информация : UTF-8 Plain Text
Язык : English
Default : Нет
Forced : Нет
Меню
00:00:00.000 : en:Credits.
00:01:02.000 : en:Girl with potential.
00:06:00.000 : en:Big something.
00:09:18.000 : en:Dirty rotten men.
00:11:47.000 : en:Exploit yourself.
00:16:14.000 : en:Job at Gotham trust.
00:20:09.000 : en:Out of Jimmy's class.
00:24:15.000 : en:From Brody to Stevens.
00:27:10.000 : en:Setting Stevens up.
00:31:39.000 : en:Not letting go.
00:34:32.000 : en:Carter's interest.
00:39:54.000 : en:Shown out in style.
00:44:07.000 : en:Love nest tragedy.
00:47:50.000 : en:New president.
00:49:23.000 : en:The board's arrangements.
00:53:57.000 : en:A ride home.
00:58:41.000 : en:Mad about her.
01:04:29.000 : en:Bank failure.
01:08:38.000 : en:As the faces turn.
01:12:47.000 : en:Lily in love.

Скриншоты


_________________
Показать сообщения:    

Текущее время: Сегодня 17:29

Часовой пояс: GMT



Вы не можете начинать темы
Вы не можете отвечать на сообщения
Вы не можете редактировать свои сообщения
Вы не можете удалять свои сообщения
Вы не можете голосовать в опросах
Вы не можете прикреплять файлы к сообщениям
Вы не можете скачивать файлы
Наши партнеры: интернет магазин Ивановского трикотажа textilla.ru