Ивановский Торрент трекер
Яндекс.Погода
 

[Цитировать]
HUNTER

Монстры на каникулах 2
Hotel Transylvania 2
«Drac's pack is back»

Страна: США
Жанр: мультфильм, фэнтези, комедия, семейный
Год выпуска: 2015
Продолжительность: 01:29:18
Перевод: Профессиональный (полное дублирование) [Лицензия iTunes]
Cубтитры: Русские (форсированные, полные), украинские (полные), английские (полные, SDH)
Оригинальная аудиодорожка: нет
Режиссер: Генндий Тартаковский / Genndy Tartakovsky
В ролях: Адам Сэндлер, Энди Сэмберг, Селена Гомес, Кевин Джеймс, Стив Бушеми, Дэвид Спейд, Кигэн-Майкл Ки, Эшер Блинкофф, Фрэн Дрешер, Молли Шеннон, Меган Маллалли, Ник Офферман
Описание:
Граф Дракула выдает свою очаровательную дочь замуж за парня из мира людей, и у молодой «смешанной» пары рождается сын. Станет ли этот ребенок человеком или вампиром?
Автор рипа: Stalker oK
Сэмпл
Качество видео: BDRip-AVC [HDCLUB / Blu-ray Remux / 1080p]
Формат видео: MKV
Видео: 1888 Кбит/сек, 1032*558 (1,85:1), в 23,976 (24000/1001) кадра/сек, AVC
Аудио: Russian, 384 Кбит/сек, 48,0 КГц, 6 каналов, AC-3
Навигация по главам: есть

MediaInfo

Общее
Уникальный идентификатор : 222668991398303627373399938610361356788 (0xA7847CE1E7E5A513AD9A1527382151F4)
Полное имя : M:\Rips\Hotel Transylvania 2\Hotel.Transylvania.2.2015.BDRip-AVC.Dub.1.45Gb.stalkerok.new-team.mkv
Формат : Matroska
Версия формата : Version 4 / Version 2
Размер файла : 1,42 Гбайт
Продолжительность : 1 ч. 29 м.
Общий поток : 2274 Кбит/сек
Название фильма : Hotel Transylvania 2 (2015) (New-Team) (Rip by Stalker oK)
Дата кодирования : UTC 2015-12-27 19:03:03
Программа кодирования : mkvmerge v8.6.1 ('Flying') 64bit
Библиотека кодирования : libebml v1.3.3 + libmatroska v1.4.4
Видео
Идентификатор : 1
Формат : AVC
Формат/Информация : Advanced Video Codec
Профиль формата : High@L4.1
Параметр CABAC формата : Да
Параметр ReFrames формата : 14 кадров
Идентификатор кодека : V_MPEG4/ISO/AVC
Продолжительность : 1 ч. 29 м.
Битрейт : 1888 Кбит/сек
Ширина : 1032 пикселя
Высота : 558 пикселей
Соотношение сторон : 1,85:1
Режим частоты кадров : Постоянный
Частота кадров : 23,976 (24000/1001) кадра/сек
Цветовое пространство : YUV
Субдискретизация насыщенности : 4:2:0
Битовая глубина : 8 бит
Тип развёртки : Прогрессивная
Бит/(Пиксели*Кадры) : 0.137
Размер потока : 1,18 Гбайт (83%)
Заголовок : Hotel Transylvania 2 (2015) (New-Team) (Rip by Stalker oK)
Библиотека кодирования : x264 core 148 r2638kMod 7599210
Настройки программы : cabac=1 / ref=14 / deblock=1:-1:-1 / analyse=0x3:0x133 / me=umh / subme=11 / psy=1 / fade_compensate=0.00 / psy_rd=1.00:0.08 / mixed_ref=1 / me_range=48 / chroma_me=1 / trellis=2 / 8x8dct=1 / cqm=0 / deadzone=21,11 / fast_pskip=0 / chroma_qp_offset=-3 / threads=12 / lookahead_threads=3 / sliced_threads=0 / nr=0 / decimate=0 / interlaced=0 / bluray_compat=0 / constrained_intra=0 / fgo=0 / bframes=15 / b_pyramid=2 / b_adapt=2 / b_bias=0 / direct=3 / weightb=1 / open_gop=0 / weightp=2 / keyint=240 / keyint_min=23 / scenecut=40 / intra_refresh=0 / rc_lookahead=60 / rc=2pass / mbtree=0 / bitrate=1888 / ratetol=1.0 / qcomp=0.70 / qpmin=0 / qpmax=69 / qpstep=4 / cplxblur=20.0 / qblur=0.5 / vbv_maxrate=50000 / vbv_bufsize=62500 / nal_hrd=none / filler=0 / ip_ratio=1.40 / pb_ratio=1.30 / aq=3:0.80
Default : Да
Forced : Нет
Аудио
Идентификатор : 2
Формат : AC-3
Формат/Информация : Audio Coding 3
Расширение режима : CM (complete main)
Параметр Endianness формата : Big
Идентификатор кодека : A_AC3
Продолжительность : 1 ч. 29 м.
Вид битрейта : Постоянный
Битрейт : 384 Кбит/сек
Каналы : 6 каналов
Расположение каналов : Front: L C R, Side: L R, LFE
Частота : 48,0 КГц
Частота кадров : 31,250 кадров/сек (1536 spf)
Метод сжатия : С потерями
Размер потока : 245 Мбайт (17%)
Язык : Russian
Default : Да
Forced : Нет
Текст #1
Идентификатор : 3
Формат : UTF-8
Идентификатор кодека : S_TEXT/UTF8
Идентификатор кодека/Информация : UTF-8 Plain Text
Продолжительность : 1 ч. 19 м.
Битрейт : 0 бит/сек
Count of elements : 6
Размер потока : 179 байт (0%)
Заголовок : iTunes - forced
Язык : Russian
Default : Да
Forced : Да
Текст #2
Идентификатор : 4
Формат : UTF-8
Идентификатор кодека : S_TEXT/UTF8
Идентификатор кодека/Информация : UTF-8 Plain Text
Продолжительность : 1 ч. 19 м.
Битрейт : 118 бит/сек
Count of elements : 1107
Размер потока : 69,2 Кбайт (0%)
Заголовок : iTunes - full-length
Язык : Russian
Default : Нет
Forced : Нет
Текст #3
Идентификатор : 5
Формат : UTF-8
Идентификатор кодека : S_TEXT/UTF8
Идентификатор кодека/Информация : UTF-8 Plain Text
Продолжительность : 1 ч. 18 м.
Битрейт : 119 бит/сек
Count of elements : 1106
Размер потока : 69,0 Кбайт (0%)
Заголовок : iTunes - full-length
Язык : Ukrainian
Default : Нет
Forced : Нет
Текст #4
Идентификатор : 6
Формат : UTF-8
Идентификатор кодека : S_TEXT/UTF8
Идентификатор кодека/Информация : UTF-8 Plain Text
Продолжительность : 1 ч. 19 м.
Битрейт : 75 бит/сек
Count of elements : 1311
Размер потока : 43,7 Кбайт (0%)
Заголовок : original (SDH)
Язык : English
Default : Нет
Forced : Нет
Текст #5
Идентификатор : 7
Формат : UTF-8
Идентификатор кодека : S_TEXT/UTF8
Идентификатор кодека/Информация : UTF-8 Plain Text
Продолжительность : 1 ч. 18 м.
Битрейт : 67 бит/сек
Count of elements : 1075
Размер потока : 39,0 Кбайт (0%)
Заголовок : original (full)
Язык : English
Default : Нет
Forced : Нет
Меню
00:00:00.000 : en:Chapter 1
00:05:46.471 : en:Chapter 2
00:09:17.639 : en:Chapter 3
00:13:09.705 : en:Chapter 4
00:19:29.125 : en:Chapter 5
00:22:42.568 : en:Chapter 6
00:30:05.303 : en:Chapter 7
00:36:12.710 : en:Chapter 8
00:40:00.981 : en:Chapter 9
00:45:54.376 : en:Chapter 10
00:51:22.454 : en:Chapter 11
00:56:54.911 : en:Chapter 12
01:04:01.920 : en:Chapter 13
01:08:32.817 : en:Chapter 14
01:13:29.404 : en:Chapter 15
01:18:35.877 : en:Chapter 16

Скриншоты



Показать сообщения:    

Текущее время: 12-Дек 16:23

Часовой пояс: UTC ± 0


Вы не можете начинать темы
Вы не можете отвечать на сообщения
Вы не можете редактировать свои сообщения
Вы не можете удалять свои сообщения
Вы не можете голосовать в опросах
Вы не можете прикреплять файлы к сообщениям
Вы не можете скачивать файлы

!ВНИМАНИЕ!
Сайт не предоставляет электронные версии произведений, а занимается лишь коллекционированием и каталогизацией ссылок, присылаемых и публикуемых на форуме нашими читателями. Если вы являетесь правообладателем какого-либо представленного материала и не желаете, чтобы ссылка на него находилась в нашем каталоге, свяжитесь с нами, и мы незамедлительно удалим ее. Файлы для обмена на трекере предоставлены пользователями сайта, и администрация не несет ответственности за их содержание. Просьба не заливать файлы, защищенные авторскими правами, а также файлы нелегального содержания!