Ивановский Торрент трекер
Яндекс.Погода
 

[Цитировать]
HUNTER

Монстры на каникулах 2 / Hotel Transylvania 2
Страна: США
Жанр: Мультипликация
Продолжительность: 01:29:18
Год выпуска: 2015
Перевод: Профессиональный (дублированный)
Русские субтитры: есть-Режиссёр: Генндий Тартаковский / Genndy Tartakovsky
Роли озвучивали: Адам Сэндлер, Энди Сэмберг, Селена Гомес, Кевин Джеймс, Стив Бушеми, Дэвид Спейд, Кигэн-Майкл Ки, Эшер Блинкофф, Фрэн Дрешер, Молли Шеннон-Описание: Граф Дракула выдает свою очаровательную дочь замуж за парня из мира людей, и у молодой «смешанной» пары рождается сын.
Станет ли этот ребенок человеком или вампиром?-Качество: BDRip 1080p
Формат: MKV
Видео: AVC, 1920x1036 (1.853), 23.976 fps, 9 193 Kbps (0.193 bit/pixel)
Аудио 1: AC-3, 48.0 KHz, 6 ch, 384 Kbps, CBR (Russian) [iTunes]
Аудио 2: AAC LC, 44.1 KHz, 2 ch (Ukrainian) [iTunes]
Аудио 3: DTS, 48.0 KHz, 6 ch, 1 510 Kbps, CBR (English)
Субтитры: Русский (Forced, Full - iTunes), Украинский (Full - iTunes), Английский (SDH, Full)
Семпл: Забираем тут

Подробные технические данные

GeneralUnique ID : 221221598581553519744205624806328083140 (0xA66DBAE82F09704C86102E1FA431A2C4)Complete name : Hotel Transylvania 2 2015 BDRip 1080p.mkvFormat : MatroskaFormat version : Version 4 / Version 2File size : 7.13 GiBDuration : 1h 29mnOverall bit rate : 11.4 MbpsMovie name : HOTEL_TRANSYLVANIA_2_2015_BDRIP_1080P -BLUEBIRDEncoded date : UTC 2015-12-25 22:33:49Writing application : mkvmerge v8.5.0 ('Vanishing Act') 32bitWriting library : libebml v1.3.1 + libmatroska v1.4.2DURATION : 01:18:30.579000000NUMBER_OF_FRAMES : 1075NUMBER_OF_BYTES : 39933_STATISTICS_WRITING_APP : mkvmerge v8.5.0 ('Vanishing Act') 32bit_STATISTICS_WRITING_DATE_UT : 2015-12-25 22:33:49_STATISTICS_TAGS : BPS DURATION NUMBER_OF_FRAMES NUMBER_OF_BYTES
VideoID : 1Format : AVCFormat/Info : Advanced Video CodecFormat profile : High@L4.1Format settings, CABAC : YesFormat settings, ReFrames : 4 framesCodec ID : V_MPEG4/ISO/AVCDuration : 1h 29mnWidth : 1 920 pixelsHeight : 1 036 pixelsDisplay aspect ratio : 1.85:1Frame rate mode : ConstantFrame rate : 23.976 fpsColor space : YUVChroma subsampling : 4:2:0Bit depth : 8 bitsScan type : ProgressiveTitle : HTL_TRNSLVN_2_2015_BDRIP_1080P -BLUEBIRDWriting library : x264 core 142 r2431+42 c69a006 tMod [8-bit@all X86_64]Encoding settings : cabac=1 / ref=4 / deblock=1:-1:-1 / analyse=0x3:0x133 / me=umh / subme=11 / psy=1 / fade_compensate=0.00 / psy_rd=0.40:0.00 / mixed_ref=1 / me_range=32 / chroma_me=1 / trellis=2 / 8x8dct=1 / cqm=0 / deadzone=21,11 / fast_pskip=0 / chroma_qp_offset=-2 / threads=12 / lookahead_threads=2 / sliced_threads=0 / nr=0 / decimate=0 / interlaced=0 / bluray_compat=0 / constrained_intra=0 / fgo=0 / bframes=8 / b_pyramid=2 / b_adapt=2 / b_bias=0 / direct=3 / weightb=1 / open_gop=0 / weightp=2 / keyint=240 / keyint_min=23 / scenecut=40 / intra_refresh=0 / rc_lookahead=60 / rc=crf / mbtree=0 / crf=15.0000 / qcomp=0.60 / qpmin=0:0:0 / qpmax=69:69:69 / qpstep=4 / vbv_maxrate=40000 / vbv_bufsize=30000 / crf_max=0.0 / nal_hrd=none / filler=0 / ip_ratio=1.40 / pb_ratio=1.30 / aq=1:0.60 / aq-sensitivity=10.00 / aq-factor=1.00:1.00:1.00 / aq2=0 / aq3=0Language : EnglishDefault : YesForced : No
Audio #1ID : 2Format : AC-3Format/Info : Audio Coding 3Mode extension : CM (complete main)Format settings, Endianness : BigCodec ID : A_AC3Duration : 1h 29mnBit rate mode : ConstantBit rate : 384 KbpsChannel(s) : 6 channelsChannel positions : Front: L C R, Side: L R, LFESampling rate : 48.0 KHzCompression mode : LossyDelay relative to video : 1s 45msStream size : 245 MiB (3%)Title : iTunesLanguage : RussianDefault : YesForced : No
Audio #2ID : 3Format : AACFormat/Info : Advanced Audio CodecFormat profile : LCCodec ID : A_AACDuration : 1h 29mnChannel(s) : 2 channelsChannel positions : Front: L RSampling rate : 44.1 KHzCompression mode : LossyDelay relative to video : 1s 45msTitle : iTunesLanguage : UkrainianDefault : NoForced : No
Audio #3ID : 4Format : DTSFormat/Info : Digital Theater SystemsMode : 16Format settings, Endianness : BigCodec ID : A_DTSDuration : 1h 29mnBit rate mode : ConstantBit rate : 1 509 KbpsChannel(s) : 6 channelsChannel positions : Front: L C R, Side: L R, LFESampling rate : 48.0 KHzBit depth : 16 bitsCompression mode : LossyStream size : 964 MiB (13%)Title : originalLanguage : EnglishDefault : NoForced : No
Text #1ID : 5Format : UTF-8Codec ID : S_TEXT/UTF8Codec ID/Info : UTF-8 Plain TextTitle : iTunes - forcedLanguage : RussianDefault : YesForced : Yes
Text #2ID : 6Format : UTF-8Codec ID : S_TEXT/UTF8Codec ID/Info : UTF-8 Plain TextTitle : iTunes - full-lengthLanguage : RussianDefault : NoForced : No
Text #3ID : 7Format : UTF-8Codec ID : S_TEXT/UTF8Codec ID/Info : UTF-8 Plain TextTitle : iTunes - full-lengthLanguage : UkrainianDefault : NoForced : No
Text #4ID : 8Format : UTF-8Codec ID : S_TEXT/UTF8Codec ID/Info : UTF-8 Plain TextTitle : original (SDH)Language : EnglishDefault : NoForced : No
Text #5ID : 9Format : UTF-8Codec ID : S_TEXT/UTF8Codec ID/Info : UTF-8 Plain TextTitle : original (full)Language : EnglishDefault : NoForced : No
Menu00:00:00.000 : en:Chapter 0100:05:46.471 : en:Chapter 0200:09:17.640 : en:Chapter 0300:13:09.705 : en:Chapter 0400:19:29.126 : en:Chapter 0500:22:42.569 : en:Chapter 0600:30:05.303 : en:Chapter 0700:36:12.712 : en:Chapter 0800:40:00.981 : en:Chapter 0900:45:54.376 : en:Chapter 1000:51:22.454 : en:Chapter 1100:56:54.911 : en:Chapter 1201:04:01.921 : en:Chapter 1301:08:32.817 : en:Chapter 1401:13:29.405 : en:Chapter 1501:18:35.877 : en:Chapter 16

Скриншоты




Показать сообщения:    

Текущее время: 17-Дек 12:06

Часовой пояс: UTC ± 0


Вы не можете начинать темы
Вы не можете отвечать на сообщения
Вы не можете редактировать свои сообщения
Вы не можете удалять свои сообщения
Вы не можете голосовать в опросах
Вы не можете прикреплять файлы к сообщениям
Вы не можете скачивать файлы

!ВНИМАНИЕ!
Сайт не предоставляет электронные версии произведений, а занимается лишь коллекционированием и каталогизацией ссылок, присылаемых и публикуемых на форуме нашими читателями. Если вы являетесь правообладателем какого-либо представленного материала и не желаете, чтобы ссылка на него находилась в нашем каталоге, свяжитесь с нами, и мы незамедлительно удалим ее. Файлы для обмена на трекере предоставлены пользователями сайта, и администрация не несет ответственности за их содержание. Просьба не заливать файлы, защищенные авторскими правами, а также файлы нелегального содержания!