Важное объявление!
У Нас Все раздачи мультитрекерные, при нуле пиров в релизах, можете смело вставать на закачку!
 
Автор Сообщение

HUNTER

Стаж:
4 года 6 месяцев
Сообщений:
61006

Репутация: 101

[+] [-]
Вне форума [Профиль] [ЛС]

Монологи о Чернобыле
Год выпуска: 2011
Страна: Россия
Жанр: документальный
Продолжительность: 01:49:18
-
Перевод: Не требуется
Русские субтитры: нет
-
Режиссер: Ирина Сидорова
-
Описание: Фильм, посвященный 25-летию Чернобыльской аварии, рассказывает о событиях 1986 года и был создан теми, кто принимал непосредственное участие в ликвидации последствий.
Автор «Монологов о Чернобыле» Владимир Губарев: «Нам хотелось рассказать о Чернобыле иначе, чем рассказывали до сих пор. Тех людей долгое время не считали героями, и мы попытались исправить эту ошибку».
-
качество: DVDRip (DVD5/lxa85)
формат: AVI
Видео: 720x400 (1.80:1), 25 fps, XviD build 73 ~1708 kbps avg, 0.24 bit/pixel
Аудио: 48 kHz, AC3 Dolby Digital, 2/0 (L,R) ch, ~192 kbps

MediaInfo

GeneralComplete name : C:\Рипы\Монологи о Чернобыле.2011.DVDRip.XviD.AC3.aviFormat : AVIFormat/Info : Audio Video InterleaveFile size : 1.46 GiBDuration : 1h 49mnOverall bit rate : 1 910 KbpsWriting application : VirtualDubMod 1.5.10.2 (build 2540/release)Writing library : VirtualDubMod build 2540/release
VideoID : 0Format : MPEG-4 VisualFormat profile : Advanced Simple@L5Format settings, BVOP : 1Format settings, QPel : NoFormat settings, GMC : No warppointsFormat settings, Matrix : CustomCodec ID : XVIDCodec ID/Hint : XviDDuration : 1h 49mnBit rate : 1 709 KbpsWidth : 720 pixelsHeight : 400 pixelsDisplay aspect ratio : 16:9Frame rate : 25.000 fpsColor space : YUVChroma subsampling : 4:2:0Bit depth : 8 bitsScan type : ProgressiveCompression mode : LossyBits/(Pixel*Frame) : 0.237Stream size : 1.30 GiB (89%)Writing library : XviD 73
AudioID : 1Format : AC-3Format/Info : Audio Coding 3Mode extension : CM (complete main)Format settings, Endianness : BigCodec ID : 2000Duration : 1h 49mnBit rate mode : ConstantBit rate : 192 KbpsChannel(s) : 2 channelsChannel positions : Front: L RSampling rate : 48.0 KHzBit depth : 16 bitsCompression mode : LossyStream size : 150 MiB (10%)Alignment : Split accross interleavesInterleave, duration : 40 ms (1.00 video frame)Interleave, preload duration : 500 ms

Скриншоты


_________________
Показать сообщения:    

Текущее время: Сегодня 09:34

Часовой пояс: GMT



Вы не можете начинать темы
Вы не можете отвечать на сообщения
Вы не можете редактировать свои сообщения
Вы не можете удалять свои сообщения
Вы не можете голосовать в опросах
Вы не можете прикреплять файлы к сообщениям
Вы не можете скачивать файлы
Наши партнеры: интернет магазин Ивановского трикотажа textilla.ru