Важное объявление!
У Нас Все раздачи мультитрекерные, при нуле пиров в релизах, можете смело вставать на закачку!
 
Автор Сообщение

HUNTER

Стаж:
4 года 7 месяцев
Сообщений:
61554

Репутация: 101

[+] [-]
Вне форума [Профиль] [ЛС]

Мона Лиза / Mona Lisa / Criterion Collection#107 «Sometimes love is a strange and wicked game.»
Страна:Великобритания
Студия:Hand Made Films
Жанр:Триллер, Драма, Мелодрама, Криминал
Год выпуска:1986
Продолжительность:01:43:51
Перевод 1:Профессиональный (многоголосый закадровый)
Перевод 2:Профессиональный (многоголосый закадровый)
Перевод 3:Авторский (одноголосый закадровый)-Сергей Кузнецов
Cубтитры:Русские, Английские
Оригинальная аудиодорожка:Английский
Премьера (мир):13.06.1986
Режиссер:Нил Джордан/Neil Jordan
Сценарий:Нил Джордан, Дэвид Лиленд
Продюсер:Патрик Кассаветти, Стивен Вулли, Крис Браун, ...
Оператор:Роджер Прэтт
Композитор:Майкл Кэмен
Художник:Джэми Леонард, Джемма Джексон, Луиз Фрогли
Монтаж:Лесли Уолкер
В ролях:Боб Хоскинс
Кэти Тайсон
Майкл Кейн
Робби Колтрейн
Кларк Питерс
Кейт Харди
Зои Нэтенсон
Сэмми Дэвис
Род Бедалл
Джо Браун

Описание:Знаменитая лента выдающегося режиссера Нила Джордана ("Интервью с вампиром '' ,"Жестокая игра","Конец романа"),представленная на премию ''Оскар", четыре "Золотых глобуса'' и ''Золотую Пальмовую ветвь" в Каннах.Блистательный британский артист Боб Хоскинс получил за свою феерическую роль в этой картине премию Британской Киноакадемии,приз за ''Лучшую актерскую работу '' на международном кинофестивале в Каннах и премию ''Золотой глобус ". Герой Боба Хоскинса,по имени Джордж,только что вышел из тюрьмы,отбыв немалый срок.Подставивший его соучастник,Мортуэлл(двукратный лауреат "Оскара" сэр Майкл Кейн),ставший теперь большим боссом мафии,благосклонно предлагает работу-стать водителем-телохранителем высокооплачиваемой темнокожей проститутки Симоны(Кэти Тайсон).Неожиданно в бывшем уголовнике просыпается любовь к
своей очаровательной подопечной,как впрочем,и обостренное чувство справедливости,отстоять которое на злачных улицах Лондона можно лишь с револьвером в руках.
Награды и номинации
Оскар, 1987 год
Номинация:
Лучшая мужская роль (Боб Хоскинс) Золотой глобус, 1987 год
Победитель:
Лучшая мужская роль (драма)(Боб Хоскинс)Номинации:
Лучший фильм (драма)
Лучшая женская роль второго плана(Кэти Тайсон) Лучший сценарий
Британская академия, 1987 год
Победитель:
Лучшая мужская роль
(Боб Хоскинс)
Номинации:
Лучший фильм
Лучшая женская роль(Кэти Тайсон)
Лучший режиссер(Нил Джордан)
Лучший оригинальный сценарий
Лучший монтаж

Каннский кинофестиваль 1986 год
Победитель:
Серебряная премия за лучшую мужскую роль
(Боб Хоскинс)
Номинации:
Золотая пальмовая ветвьНаграды и номинации:
1986 год - премия Best Actor (Cannes Film Festival) - Боб Хоскинс.
1986 год - номинация на премию Golden Palm (Cannes Film Festival) - Нейл Джордан.
1987 год - номинация на премию Oscar в категории "лучший актер" - Боб Хоскинс.
1987 год - премия BAFTA Film Award в категории "лучший актер" - Боб Хоскинс.
1987 год - номинация на премию BAFTA Film Award в категории "лучшая актриса" - Кэти Тайсон.
1987 год - номинация на премию BAFTA Film Award в категории "лучший режиссер" - Нейл Джордан.
1987 год - номинация на премию BAFTA Film Award в категории "лучший монтаж" - Лесли Уокер.
1987 год - номинация на премию BAFTA Film Award в категории "лучший фильм" - Стивен Вули, Нейл Джордан, Патрик Кассаветти.
1987 год - номинация на премию BAFTA Film Award в категории "лучший оригинальный
сценарий" -
Нейл Джордан, Дэвид Лиланд.
1987 год - премия BSFC Award (Boston Society of Film Critics Awards) в категории "лучший
актер" - Боб Хоскинс.
1987 год - премия Golden Globe в категории "лучший актер драмы" - Боб Хоскинс.
1987 год - номинация на премию Golden Globe в категории "лучший фильм - драма".
1987 год - номинация на премию Golden Globe в категории "лучшая актриса второго плана" -
Кэти Тайсон.
1987 год - номинация на премию Golden Globe в категории "лучший сценарий" - Нейл Джордан, Дэвид Лиланд.
1987 год - премия KCFCC Award (Kansas City Film Critics Circle Awards) в категории "лучший
актер"-Боб Хоскинс.
1987 год - премия ALFS Award (London Critics Circle Film Awards) в категории "актер года" -Боб Хоскинс.
1986 год - премия LAFCA Award (Los Angeles Film Critics Association Awards) в категории
"лучший актер" - Боб Хоскинс.
1986 год - премия LAFCA Award (Los Angeles Film Critics Association Awards) в категории
"лучшая актриса второго плана" - Кэти Тайсон.
1987 год - премия NSFC Award (National Society of Film Critics Awards, USA) в категории
"лучший актер"- Боб Хоскинс.
1986 год - премия NYFCC Award (New York Film Critics Circle Awards) в категории "лучший
актер" - Боб Хоскинс.
1986 год - премия Best Actor (Valladolid International Film Festival) в категории "лучший актер" -Боб Хоскинс.
1986 год - премия Golden Spike (Valladolid International Film Festival) в категории "лучший фильм" -Нейл Джордан.
1987 год - номинация на премию WGA Award (Screen) (Writers Guild of America, USA) в категории "лучший оригинальный сценарий" - Нейл Джордан, Дэвид Лиланд.

Доп. информация: Софт:
PGCDemux (извлечение).
BeSweet, Sony Vegas 9 (звук).
DVD-lab PRO 2, Subtitle Workshop (субтитры).
MuxMan (сборка). DvdReMakePro (финал).
Бонусы:Оригинальный трейлер
Английские субтитры для глухих и слабослышащих.Аудио комментарии режиссера Нила Джордана и актер Боб Хоскинс.Русские дорожки и субтитры включаются с пульта.Аудио 3 добавлена из раздачи stdlib-[url=http://rutracker.org/forum/viewtopic.php?t=2544214)]http://rutracker.org/forum/viewtopic.php?t=2544214)[/url]-изначально была AC3, 6 ch (дутая).Переделана в AC3, 2 ch.От туда же русские субтитры.Аудио 4 добавлена из раздачи andrmaj132- http://rutracker.org/forum/viewtopic.php?t=4420446Аудио 5 добавлена из раздачи cinemasonar-http://rutracker.org/forum/viewtopic.php?t=4727298.За дорожку с переводом Сергея Кузнецова благодарим - budulai-8Произведена синхронизация звука и нормализация громкости.Реавторингом занимался Нордер! Спасибо!Меню:статичное, не озвученное,на английском языке
Сэмпл:http://multi-up.com/972701
Тип релиза:DVD9 (Custom)
Контейнер:DVD-Video
Видео:NTSC 4:3 (720x480) VBR 6250.38 kbps
Аудио:English (Dolby AC3, 1 ch) моно 48000Hz 192kb/s (оригинал)
Аудио 2:English (Dolby AC3, 1 ch) моно 48000Hz 192kb/s (комментарий Нила Джордана и Боб Хоскина)
Аудио 3:Russian (Dolby AC3, 2 ch) стерео 48000Hz 192kb/s
Аудио 4:Russian (Dolby AC3, 2 ch) стерео 48000Hz 192kb/sАудио 5:Russian (Dolby AC3, 2 ch) стерео 48000Hz 256kb/s

MediaInfo
Общее
Полное имя: F:\Mona Lisa_DVD-9_Custom_Criterion_#107\VIDEO_TS\VTS_01_1.VOB
Формат : MPEG-PS
Размер файла : 1024 Мбайт
Продолжительность : 21 м.
Режим общего битрейта : Переменный
Общий поток : 6798 Кбит/сек
Видео
Идентификатор : 224 (0xE0)
Формат : MPEG Video
Версия формата : Version 2
Профиль формата : Main@Main
Параметр BVOP формата : Да
Параметр матрицы формата : По умолчанию
Параметр GOP формата : M=3, N=13
Продолжительность : 21 м.
Вид битрейта : Переменный
Битрейт : 5639 Кбит/сек
Максимальный битрейт : 8500 Кбит/сек
Ширина : 720 пикселей
Высота : 480 пикселей
Соотношение сторон : 4:3
Частота кадров : 29,970 кадров/сек
Стандарт вещания : NTSC
Цветовое пространство : YUV
Субдискретизация насыщенности : 4:2:0
Битовая глубина : 8 бит
Тип развёртки : Прогрессивная
Порядок развёртки : Верхнее поле первое
Метод сжатия : С потерями
Бит/(Пиксели*Кадры) : 0.544
Временной код первого кадра : 00:00:00:00
Оригинал временного кода : Group of pictures header
Размер потока : 849 Мбайт (83%)
Основные цвета : BT.601 NTSC
Характеристики трансфера : BT.601
Коэффициенты матрицы : BT.601
Аудио #1
Идентификатор : 189 (0xBD)-128 (0x80)
Формат : AC-3
Формат/Информация : Audio Coding 3
Расширение режима : CM (complete main)
Параметр Endianness формата : Big
Режим смешивания : DVD-Video
Продолжительность : 21 м.
Вид битрейта : Постоянный
Битрейт : 192 Кбит/сек
Каналы : 1 канал
Расположение каналов : Front: C
Частота : 48,0 КГц
Битовая глубина : 16 бит
Метод сжатия : С потерями
Размер потока : 28,9 Мбайт (3%)
Аудио #2
Идентификатор : 189 (0xBD)-129 (0x81)
Формат : AC-3
Формат/Информация : Audio Coding 3
Расширение режима : CM (complete main)
Параметр Endianness формата : Big
Режим смешивания : DVD-Video
Продолжительность : 21 м.
Вид битрейта : Постоянный
Битрейт : 192 Кбит/сек
Каналы : 1 канал
Расположение каналов : Front: C
Частота : 48,0 КГц
Битовая глубина : 16 бит
Метод сжатия : С потерями
Размер потока : 28,9 Мбайт (3%)
Аудио #3
Идентификатор : 189 (0xBD)-130 (0x82)
Формат : AC-3
Формат/Информация : Audio Coding 3
Расширение режима : CM (complete main)
Параметр Endianness формата : Big
Режим смешивания : DVD-Video
Продолжительность : 21 м.
Вид битрейта : Постоянный
Битрейт : 192 Кбит/сек
Каналы : 2 канала
Расположение каналов : Front: L R
Частота : 48,0 КГц
Битовая глубина : 16 бит
Метод сжатия : С потерями
Размер потока : 28,9 Мбайт (3%)
Аудио #4
Идентификатор : 189 (0xBD)-131 (0x83)
Формат : AC-3
Формат/Информация : Audio Coding 3
Расширение режима : CM (complete main)
Параметр Endianness формата : Big
Режим смешивания : DVD-Video
Продолжительность : 21 м.
Вид битрейта : Постоянный
Битрейт : 192 Кбит/сек
Каналы : 2 канала
Расположение каналов : Front: L R
Частота : 48,0 КГц
Битовая глубина : 16 бит
Метод сжатия : С потерями
Размер потока : 28,9 Мбайт (3%)
Аудио #5
Идентификатор : 189 (0xBD)-132 (0x84)
Формат : AC-3
Формат/Информация : Audio Coding 3
Расширение режима : CM (complete main)
Параметр Endianness формата : Big
Режим смешивания : DVD-Video
Продолжительность : 21 м.
Вид битрейта : Постоянный
Битрейт : 256 Кбит/сек
Каналы : 2 канала
Расположение каналов : Front: L R
Частота : 48,0 КГц
Битовая глубина : 16 бит
Метод сжатия : С потерями
Размер потока : 38,5 Мбайт (4%)
Текст #1
Идентификатор : 189 (0xBD)-33 (0x21)
Формат : RLE
Формат/Информация : Run-length encoding
Режим смешивания : DVD-Video
Продолжительность : 20 м.
Задержка видео : 11 с.
Текст #2
Идентификатор : 189 (0xBD)-32 (0x20)
Формат : RLE
Формат/Информация : Run-length encoding
Режим смешивания : DVD-Video
Dvd Info
Title: Mona Lisa_DVD-9_Custom_Criterion_#107
Size: 4.84 Gb ( 5 072 438,00 KBytes ) - DVD-9
Enabled regions: 1, 2, 3, 4, 5, 6, 7, 8
VTS_01 :
Play Length: 01:43:52
Video: NTSC 4:3 (720x480) VBR
Audio:
English, AC3, 1/0 (C) ch, 192 kbps, Delay 0 mSec
English, AC3, 1/0 (C) ch, 192 kbps, Delay 0 mSec
Russian, AC3, 2/0 (L,R) ch, 192 kbps, Delay 0 mSec
Russian, AC3, 2/0 (L,R) ch, 192 kbps, Delay 0 mSec
Russian, AC3, 2/0 (L,R) ch, 256 kbps, Delay 0 mSec
Subtitles:
English
Russian
VTS_02 :
Play Length: 00:00:15
Video: NTSC 4:3 (720x480) VBR
VTS_03 :
Play Length: 00:02:33
Video: NTSC 4:3 (720x480) VBR
Audio:
English, AC3, 1/0 (C) ch, 192 kbps, Delay 33 mSec
Скриншоты менюСкриншотыСкриншоты доп. материаловБуклетУважаемые пользователи!Найдите пару минут поблагодарить релизера и высказаться в топике раздачи.Ваше мнение - бальзам для раздающего и пища для ума остальным
пользователям.
Мои раздачиТоррент файл перезалит 9.05.2014г. 16-00. Добавлен (одноголосый закадровый)-Сергей Кузнецов

_________________
Показать сообщения:    

Текущее время: Сегодня 10:55

Часовой пояс: GMT



Вы не можете начинать темы
Вы не можете отвечать на сообщения
Вы не можете редактировать свои сообщения
Вы не можете удалять свои сообщения
Вы не можете голосовать в опросах
Вы не можете прикреплять файлы к сообщениям
Вы не можете скачивать файлы
Наши партнеры: интернет магазин Ивановского трикотажа textilla.ru