Ивановский Торрент трекер
Яндекс.Погода
Статистика раздачи
Размер:  4.35 GB   |    Зарегистрирован:  1 год 2 месяца   |    Скачан:  0 раз

Полного источника не было: Никогда

 
     
 
 
 

[Цитировать]
HUNTER

Монах и бес- Страна: Россия
Жанр: Комедия, фантастика
Год выпуска: 2016
Продолжительность: 01:53:03-Перевод: Не требуется
Cубтитры: нет-Режиссер: Николай Досталь-В ролях: Тимофей Трибунцев, Георгий Фетисов, Борис Каморзин, Роман Мадянов, Никита Тарасов, Сергей Барковский-Описание: Фантастическая история первой половины XIX века. В мужском монастыре появляется новый насельник Иван Семенович. Но вместе с монахом в монастырь проникают темные силы, которые материализуются в лице Легиона (так он представился Ивану). Легион избрал Ивана объектом своей дьявольской работы, всячески искушая его, чтобы сбить с избранного им пути служения Богу. Но чем сильнее искушение, тем крепче духовные силы Ивана.- / -Награды
ММКФ, 2016 год
Номинации (1):
Приз за лучший фильм - Золотой «Святой Георгий»
-Тип релиза: WEB-DL 1080p
Контейнер: MKV
Видео: MPEG-4 AVC, 1920x1038 (1.85:1), 24.000 fps, 4 976 Kbps
Аудио: 48 kHz, AC3 Dolby Digital, 3/2 (L,C,R,l,r) + LFE ch, ~384 kbps

MediaInfo

General
Complete name : \Downloads\Monax.i.Bes.2O16.O.WEB-DL.1O8Op.mkv
Format : Matroska
Format version : Version 4 / Version 2
File size : 44.8 MiB
Duration : 1mn 8s
Overall bit rate : 5 469 Kbps
Movie name : MoreFilms
Encoded date : UTC 2016-10-05 19:47:16
Writing application : mkvmerge v9.4.2 ('So High') 64bit
Writing library : libebml v1.3.4 + libmatroska v1.4.5
DURATION : 00:01:08.736000000
Video #1
ID : 1
Format : AVC
Format/Info : Advanced Video Codec
Format profile : High@L4.0
Format settings, CABAC : Yes
Format settings, ReFrames : 4 frames
Codec ID : V_MPEG4/ISO/AVC
Duration : 1mn 8s
Bit rate : 4 976 Kbps
Width : 1 920 pixels
Height : 1 038 pixels
Display aspect ratio : 1.85:1
Frame rate mode : Constant
Frame rate : 24.000 fps
Color space : YUV
Chroma subsampling : 4:2:0
Bit depth : 8 bits
Scan type : Progressive
Bits/(Pixel*Frame) : 0.104
Stream size : 40.8 MiB (91%)
Language : English
Default : Yes
Forced : No
Color primaries : BT.709
Transfer characteristics : BT.709
Matrix coefficients : BT.709
Color range : Limited
Audio #2
ID : 2
Format : AC-3
Format/Info : Audio Coding 3
Mode extension : CM (complete main)
Format settings, Endianness : Big
Codec ID : A_AC3
Duration : 1mn 8s
Bit rate mode : Constant
Bit rate : 384 Kbps
Channel(s) : 6 channels
Channel positions : Front: L C R, Side: L R, LFE
Sampling rate : 48.0 KHz
Bit depth : 16 bits
Compression mode : Lossy
Delay relative to video : 24ms
Stream size : 3.15 MiB (7%)
Language : Russian
Default : Yes
Forced : No

Скриншоты

[iv-torrents.ru].t62719.torrent
Торрент: Зарегистрирован [ 2016-10-07 18:56 ] · AD6C7D8AD71782F5E2C770E237F150F8CF8D62C6

Скачать .torrent

Скачать

44 KB

Статус: проверено
Скачан: 0 раз
Размер: 4.35 GB
terms.php


Показать сообщения:    

Текущее время: 15-Дек 04:43

Часовой пояс: UTC ± 0


Вы не можете начинать темы
Вы не можете отвечать на сообщения
Вы не можете редактировать свои сообщения
Вы не можете удалять свои сообщения
Вы не можете голосовать в опросах
Вы не можете прикреплять файлы к сообщениям
Вы можете скачивать файлы

!ВНИМАНИЕ!
Сайт не предоставляет электронные версии произведений, а занимается лишь коллекционированием и каталогизацией ссылок, присылаемых и публикуемых на форуме нашими читателями. Если вы являетесь правообладателем какого-либо представленного материала и не желаете, чтобы ссылка на него находилась в нашем каталоге, свяжитесь с нами, и мы незамедлительно удалим ее. Файлы для обмена на трекере предоставлены пользователями сайта, и администрация не несет ответственности за их содержание. Просьба не заливать файлы, защищенные авторскими правами, а также файлы нелегального содержания!