Важное объявление!
У Нас Все раздачи мультитрекерные, при нуле пиров в релизах, можете смело вставать на закачку!
Статистика раздачи
Размер:     |    Зарегистрирован:     |    Скачан:     |   
Нет
 
     
 
 
Автор Сообщение

HUNTER

Стаж:
5 лет
Сообщений:
68401

Репутация: 101

[+] [-]
Вне форума [Профиль] [ЛС]

Монах и бес-
Страна: Россия
Жанр: Комедия, фантастика
Год выпуска: 2016
Продолжительность: 01:53:03-Перевод: Не требуется
Cубтитры: нет-Режиссер: Николай Досталь-В ролях: Тимофей Трибунцев, Георгий Фетисов, Борис Каморзин, Роман Мадянов, Никита Тарасов, Сергей Барковский-Описание: Фантастическая история первой половины XIX века. В мужском монастыре появляется новый насельник Иван Семенович. Но вместе с монахом в монастырь проникают темные силы, которые материализуются в лице Легиона (так он представился Ивану). Легион избрал Ивана объектом своей дьявольской работы, всячески искушая его, чтобы сбить с избранного им пути служения Богу. Но чем сильнее искушение, тем крепче духовные силы Ивана.- / [img]https://rating.kinopoisk.ru/742184.gif[/img]-Награды
ММКФ, 2016 год
Номинации (1):
Приз за лучший фильм - Золотой «Святой Георгий»
-Тип релиза: WEB-DL 1080p
Контейнер: MKV
Видео: MPEG-4 AVC, 1920x1038 (1.85:1), 24.000 fps, 4 976 Kbps
Аудио: 48 kHz, AC3 Dolby Digital, 3/2 (L,C,R,l,r) + LFE ch, ~384 kbps

MediaInfo

General
Complete name : \Downloads\Monax.i.Bes.2O16.O.WEB-DL.1O8Op.mkv
Format : Matroska
Format version : Version 4 / Version 2
File size : 44.8 MiB
Duration : 1mn 8s
Overall bit rate : 5 469 Kbps
Movie name : MoreFilms
Encoded date : UTC 2016-10-05 19:47:16
Writing application : mkvmerge v9.4.2 ('So High') 64bit
Writing library : libebml v1.3.4 + libmatroska v1.4.5
DURATION : 00:01:08.736000000
Video #1
ID : 1
Format : AVC
Format/Info : Advanced Video Codec
Format profile : High@L4.0
Format settings, CABAC : Yes
Format settings, ReFrames : 4 frames
Codec ID : V_MPEG4/ISO/AVC
Duration : 1mn 8s
Bit rate : 4 976 Kbps
Width : 1 920 pixels
Height : 1 038 pixels
Display aspect ratio : 1.85:1
Frame rate mode : Constant
Frame rate : 24.000 fps
Color space : YUV
Chroma subsampling : 4:2:0
Bit depth : 8 bits
Scan type : Progressive
Bits/(Pixel*Frame) : 0.104
Stream size : 40.8 MiB (91%)
Language : English
Default : Yes
Forced : No
Color primaries : BT.709
Transfer characteristics : BT.709
Matrix coefficients : BT.709
Color range : Limited
Audio #2
ID : 2
Format : AC-3
Format/Info : Audio Coding 3
Mode extension : CM (complete main)
Format settings, Endianness : Big
Codec ID : A_AC3
Duration : 1mn 8s
Bit rate mode : Constant
Bit rate : 384 Kbps
Channel(s) : 6 channels
Channel positions : Front: L C R, Side: L R, LFE
Sampling rate : 48.0 KHz
Bit depth : 16 bits
Compression mode : Lossy
Delay relative to video : 24ms
Stream size : 3.15 MiB (7%)
Language : Russian
Default : Yes
Forced : No

Скриншоты


_________________
Показать сообщения:    

Текущее время: Сегодня 06:05

Часовой пояс: GMT



Вы не можете начинать темы
Вы не можете отвечать на сообщения
Вы не можете редактировать свои сообщения
Вы не можете удалять свои сообщения
Вы не можете голосовать в опросах
Вы не можете прикреплять файлы к сообщениям
Вы не можете скачивать файлы