Ивановский Торрент трекер
Яндекс.Погода
 

[Цитировать]
димитри37

Молодые сердца / Love and Honor- Страна: США
Жанр: мелодрама, военный
Год выпуска: 2012
Продолжительность: 01:35:54
Перевод: Профессиональный (дублированный) R5
Cубтитры: нет
Режиссер: Дэнни Муни / Danny Mooney
В ролях: Лиам Хемсворт, Остин Стоуэлл, Тереза Палмер, Эйми Тигарден, Крис Лоуэлл, Уайатт Расселл, Макс Адлер, Лорен Мэй Шафер, Майкл Эллисон, Крис Ньюман и другие
Описание: Молодой парень Дэлтон решает тайком сбежать на несколько дней в самоволку, чтобы увидеться с любимой девушкой. К нему присоединяется его друг Микки. В компании беспечных молодых студентов Микки знакомится с соблазнительной, красивой и свободолюбивой Кэндис. Ради нескольких дней с ней Микки готов поставить на карту свою военную карьеру и даже жизнь. Герои никогда не смогут забыть это солнечное, страстное и безумное лето, когда пробуждались молодые сердца…
Качество видео: HDRip Исходник
Формат видео: AVI
Видео: Xvid 672x288 23.98fps 945Kbps 0.20bit/pixel
Аудио: MPEG Audio Layer 3 48000Hz stereo 128Kbps- -

MediaInfo

Общее
Полное имя : G:\TORRENTS\Фильмы\Иностранные фильмы\2012 год\Молодые сердца\Molodye serdca (2012) - HDRip by TaniaVGTU.avi
Формат : AVI
Формат/Информация : Audio Video Interleave
Размер файла : 743 Мбайт
Продолжительность : 1 ч. 35 м.
Общий поток : 1083 Кбит/сек
Программа кодирования : VirtualDubMod 1.5.10.2 (build 2540/release)
Библиотека кодирования : VirtualDubMod build 2540/release
Видео
Идентификатор : 0
Формат : MPEG-4 Visual
Профиль формата : Advanced Simple@L5
Параметр BVOP формата : 1
Параметр QPel формата : Нет
Параметр GMC формата : Без точки перехода
Параметр матрицы формата : Выборочная
Идентификатор кодека : XVID
Идентификатор кодека/Подсказка : XviD
Продолжительность : 1 ч. 35 м.
Битрейт : 946 Кбит/сек
Ширина : 672 пикселя
Высота : 288 пикселей
Соотношение сторон : 2,35:1
Частота кадров : 23,976 кадра/сек
Цветовое пространство : YUV
Субдискретизация насыщенности : 4:2:0
Битовая глубина : 8 бит
Тип развёртки : Прогрессивная
Метод сжатия : С потерями
Бит/(Пиксели*Кадры) : 0.204
Размер потока : 649 Мбайт (87%)
Библиотека кодирования : XviD 1.2.1 (UTC 2008-12-04)
Аудио
Идентификатор : 1
Формат : MPEG Audio
Версия формата : Version 1
Профиль формата : Layer 3
Идентификатор кодека : 55
Идентификатор кодека/Подсказка : MP3
Продолжительность : 1 ч. 35 м.
Вид битрейта : Постоянный
Битрейт : 128 Кбит/сек
Каналы : 2 канала
Частота : 48,0 КГц
Метод сжатия : С потерями
Размер потока : 87,8 Мбайт (12%)
Выравнивание : Соединение по промежуткам
Продолжительность промежутка : 42 мс. (1,00 видеокадр)
Время предзагрузки промежутка : 504 мс.
Библиотека кодирования : LAME3.98r
Настройки программы : -m s -V 4 -q 2 -lowpass 17 -b 128

Скриншот c названием фильма

Скриншоты

Показать сообщения:    

Текущее время: 24-Сен 23:57

Часовой пояс: UTC - 1


Вы не можете начинать темы
Вы не можете отвечать на сообщения
Вы не можете редактировать свои сообщения
Вы не можете удалять свои сообщения
Вы не можете голосовать в опросах
Вы не можете прикреплять файлы к сообщениям
Вы не можете скачивать файлы

!ВНИМАНИЕ!
Сайт не предоставляет электронные версии произведений, а занимается лишь коллекционированием и каталогизацией ссылок, присылаемых и публикуемых на форуме нашими читателями. Если вы являетесь правообладателем какого-либо представленного материала и не желаете, чтобы ссылка на него находилась в нашем каталоге, свяжитесь с нами, и мы незамедлительно удалим ее. Файлы для обмена на трекере предоставлены пользователями сайта, и администрация не несет ответственности за их содержание. Просьба не заливать файлы, защищенные авторскими правами, а также файлы нелегального содержания!