Молодой Уинстон / Young Winston (Ричард Аттенборо / Richard Attenborough) [1972, Великобритания, США, драма, военный, биография, WEB-DL 720p] MVO (5 канал) + Sub Eng + Original Eng :: Ивановский Торрент трекер
Важное объявление!
У Нас Все раздачи мультитрекерные, при нуле пиров в релизах, можете смело вставать на закачку!
Статистика раздачи
Размер:     |    Зарегистрирован:     |    Скачан:     |   
Нет
 
     
 
 
Автор Сообщение

HUNTER

Стаж:
4 года 11 месяцев
Сообщений:
66098

Репутация: 101

[+] [-]
Вне форума [Профиль] [ЛС]

Молодой Уинстон / Young Winston
Страна: Великобритания, США
Студия: Columbia Pictures Corporation, Open Road Films (II)
Жанр: драма, военный, биография
Год выпуска: 1972
Продолжительность: 02:29:47
Перевод: Профессиональный (многоголосый закадровый) 5 канал
Cубтитры: английские
Оригинальная аудиодорожка: английский
Режиссер: Ричард Аттенборо / Richard Attenborough
В ролях: Саймон Уорд, Питер Селлиер, Рональд Хайнс, Джон Миллз, Энн Бэнкрофт, Расселл Льюис, Пэт Хейвуд, Роберт Шоу, Лоуренс Нэйсмит, Иэн Холм, Энтони Хопкинс
Описание: Фильм снят по книге Уинстона Черчилля «Мои молодые годы: преданное служение». Юные годы Черчилля предстают в воспоминаниях Черчилля старого: детство, школа-интернат, родители, авантюры в Индии и Судане, участие в качестве военного корреспондента в Англо-бурской войне, избрание в парламент.
Доп. информация: За дорожку 5 канала (Санкт-Петербург) спасибо problesk.

Sample
Тип релиза: WEB-DL 720p
Контейнер: MKV
Видео: MPEG4 AVC Video, H264, 16:9, 1280x544, 23.976 fps, 3996 kbps
Аудио: Russian (AC3, 2 ch, 192 kbps, 16 bits, 48.0 KHz) - MVO
Аудио 2: English (AC3, 2 ch, 192 kbps, 16 bits, 48.0 KHz) - оригинал
Формат субтитров: softsub (SRT)

MediaInfo

General
Unique ID : 233666286541663612954343622225609663908 (0xAFCA7D65225C9810A0013687B68CA5A4)
Complete name : K:\Young Winston 1972 WEB-DL 720p.mkv
Format : Matroska
Format version : Version 4 / Version 2
File size : 4.68 GiB
Duration : 2h 29mn
Overall bit rate : 4 469 Kbps
Encoded date : UTC 2015-08-06 17:45:29
Writing application : mkvmerge v6.1.0 ('Old Devil') built on Mar 2 2013 14:32:37
Writing library : libebml v1.3.0 + libmatroska v1.4.0
Video
ID : 1
Format : AVC
Format/Info : Advanced Video Codec
Format profile : Main@L3.1
Format settings, CABAC : No
Format settings, ReFrames : 2 frames
Codec ID : V_MPEG4/ISO/AVC
Duration : 2h 29mn
Bit rate : 3 996 Kbps
Width : 1 280 pixels
Height : 544 pixels
Display aspect ratio : 2.35:1
Frame rate mode : Constant
Frame rate : 23.976 fps
Color space : YUV
Chroma subsampling : 4:2:0
Bit depth : 8 bits
Scan type : Progressive
Bits/(Pixel*Frame) : 0.239
Stream size : 4.18 GiB (89%)
Language : English
Default : Yes
Forced : No
Color primaries : BT.709
Transfer characteristics : BT.709
Matrix coefficients : BT.709
Audio #1
ID : 2
Format : AC-3
Format/Info : Audio Coding 3
Mode extension : CM (complete main)
Format settings, Endianness : Big
Codec ID : A_AC3
Duration : 2h 29mn
Bit rate mode : Constant
Bit rate : 192 Kbps
Channel count : 2 channels
Channel positions : Front: L R
Sampling rate : 48.0 KHz
Bit depth : 16 bits
Compression mode : Lossy
Stream size : 206 MiB (4%)
Language : Russian
Default : Yes
Forced : Yes
Audio #2
ID : 3
Format : AC-3
Format/Info : Audio Coding 3
Mode extension : CM (complete main)
Format settings, Endianness : Big
Codec ID : A_AC3
Duration : 2h 29mn
Bit rate mode : Constant
Bit rate : 192 Kbps
Channel count : 2 channels
Channel positions : Front: L R
Sampling rate : 48.0 KHz
Bit depth : 16 bits
Compression mode : Lossy
Stream size : 206 MiB (4%)
Language : English
Default : No
Forced : No
Text
ID : 4
Format : UTF-8
Codec ID : S_TEXT/UTF8
Codec ID/Info : UTF-8 Plain Text
Language : English
Default : No
Forced : No
Menu
00:00:00.000 : en:Chapter 1
00:12:53.000 : en:Chapter 2
00:26:31.000 : en:Chapter 3
00:39:44.000 : en:Chapter 4
00:51:15.000 : en:Chapter 5
01:02:15.000 : en:Chapter 6
01:12:54.000 : en:Chapter 7
01:25:33.000 : en:Chapter 8
01:39:23.000 : en:Chapter 9
01:51:29.000 : en:Chapter 10
02:04:13.000 : en:Chapter 11
02:14:13.000 : en:Chapter 12

Скриншоты


_________________
Показать сообщения:    

Текущее время: Сегодня 05:38

Часовой пояс: GMT



Вы не можете начинать темы
Вы не можете отвечать на сообщения
Вы не можете редактировать свои сообщения
Вы не можете удалять свои сообщения
Вы не можете голосовать в опросах
Вы не можете прикреплять файлы к сообщениям
Вы не можете скачивать файлы