Важное объявление!
У Нас Все раздачи мультитрекерные, при нуле пиров в релизах, можете смело вставать на закачку!
Статистика раздачи
Размер:     |    Зарегистрирован:     |    Скачан:     |   
Нет
 
     
 
 
Автор Сообщение

HUNTER

Стаж:
5 лет
Сообщений:
67992

Репутация: 101

[+] [-]
Вне форума [Профиль] [ЛС]

-Молодежь | Young Ones-
Год выпуска: 2014
Страна: ЮАР, Ирландия
Студия: Bifrost Pictures, Quickfire Films, Spier Films, Subotica Entertainment Ltd.
Жанр: драма
Продолжительность: 01:42:20-Перевод: Профессиональный (многоголосый закадровый) | Официальный
Cубтитры: отсутствуют
Оригинальная аудиодорожка: английский-Режиссёр: Джейк Пэлтроу / Jake Paltrow-В ролях: Николас Холт, Эль Фаннинг, Коди Смит-МакФи, Майкл Шеннон, Айми Маллинз, Алекс МакГрегор, Энди МакФи, Лиа О’Прей, Роберт Хоббс, Дэвид Батлер-Описание: Когда Эрнест и его сын Жером потратили последние средства семьи на покупку роботизированного мула, для того чтобы доставлять продовольственные пайки для группы рабочих, которые бурят скважины для воды, они никогда не думали, что так сильно изменят свое будущее. Флем строит планы относительно дочери Эрнеста - Мэри и надеется вернуть себе земли, которыми владел его отец в период расцвета промышленного сельского хозяйства в начале XXI века. Когда желания Флема осуществляются путем блестящего использования лжи и манипулирования, происходит ряд событий, которые изменят их молодую жизнь навсегда и Жером вынужден будет сделать выбор, который не должен делать ни один ребенок.- -Качество: BDRip 720p
Формат: MKV
Видео: x264, ~ 5187 kbps, 1280x538 (16:9), 23,976 fps
Аудио 1: AC3, 48,0 КГц, 2 ch, 192 kbps - Rus
Аудио 2: DTS, 48,0 КГц, 6 ch, 1510 kbps- Eng
Субтитры: отсутствуют-

MediaInfo

Код:
General
Unique ID                                : 204603216834883595958261555537004535388 (0x99ED256D7EF6F50688375F9301491E5C)
Complete name                            : /home9/teamkz/downloads/torrents/M0L0dezhj.2014.P.BDRip.720p.mkv
Format                                   : Matroska
Format version                           : Version 2
File size                                : 4.93 GiB
Duration                                 : 1h 40mn
Overall bit rate                         : 7 038 Kbps
Encoded date                             : UTC 2015-08-01 15:10:47
Writing application                      : mkvmerge v8.2.0 ('World of Adventure') 64bit
Writing library                          : libebml v1.3.1 + libmatroska v1.4.2
DURATION                                 : 01:40:20.032000000
NUMBER_OF_FRAMES                         : 188126
NUMBER_OF_BYTES                          : 144480768
_STATISTICS_WRITING_APP                  : mkvmerge v8.2.0 ('World of Adventure') 64bit
_STATISTICS_WRITING_DATE_UTC             : 2015-08-01 15:10:47
_STATISTICS_TAGS                         : BPS DURATION NUMBER_OF_FRAMES NUMBER_OF_BYTES
Video
ID                                       : 1
Format                                   : AVC
Format/Info                              : Advanced Video Codec
Format profile                           : High@L4.1
Format settings, CABAC                   : Yes
Format settings, ReFrames                : 12 frames
Codec ID                                 : V_MPEG4/ISO/AVC
Duration                                 : 1h 40mn
Bit rate                                 : 5 197 Kbps
Width                                    : 1 280 pixels
Height                                   : 538 pixels
Display aspect ratio                     : 2.40:1
Frame rate mode                          : Constant
Frame rate                               : 23.976 fps
Color space                              : YUV
Chroma subsampling                       : 4:2:0
Bit depth                                : 8 bits
Scan type                                : Progressive
Bits/(Pixel*Frame)                       : 0.315
Stream size                              : 3.64 GiB (74%)
Title                                    : Young.Ones.2014.720p.BluRay.DTS.x264-HDAccess
Writing library                          : x264 core 142 r2479kMod dd79a61
Encoding settings                        : cabac=1 / ref=12 / deblock=1:-3:-3 / analyse=0x3:0x133 / me=umh / subme=9 / psy=1 / fade_compensate=0.00 / psy_rd=1.05:0.00 / mixed_ref=1 / me_range=24 / chroma_me=1 / trellis=2 / 8x8dct=1 / cqm=0 / deadzone=21,11 / fast_pskip=0 / chroma_qp_offset=-2 / threads=18 / lookahead_threads=4 / sliced_threads=0 / nr=0 / decimate=1 / interlaced=0 / bluray_compat=0 / constrained_intra=0 / fgo=0 / bframes=11 / b_pyramid=2 / b_adapt=2 / b_bias=0 / direct=3 / weightb=1 / open_gop=0 / weightp=2 / keyint=230 / keyint_min=23 / scenecut=40 / intra_refresh=0 / rc_lookahead=40 / rc=crf / mbtree=0 / crf=17.8000 / qcomp=0.65 / qpmin=0 / qpmax=69 / qpstep=4 / vbv_maxrate=50000 / vbv_bufsize=62500 / crf_max=0.0 / nal_hrd=none / filler=0 / ip_ratio=1.20 / pb_ratio=1.10 / aq=1:0.92
Language                                 : English
Default                                  : Yes
Forced                                   : No
DURATION                                 : 01:40:19.973000000
NUMBER_OF_FRAMES                         : 144335
NUMBER_OF_BYTES                          : 4006517327
_STATISTICS_WRITING_APP                  : mkvmerge v8.2.0 ('World of Adventure') 64bit
_STATISTICS_WRITING_DATE_UTC             : 2015-08-01 15:10:47
_STATISTICS_TAGS                         : BPS DURATION NUMBER_OF_FRAMES NUMBER_OF_BYTES
Matrix coefficients                      : BT.709
Audio #1
ID                                       : 2
Format                                   : AC-3
Format/Info                              : Audio Coding 3
Mode extension                           : CM (complete main)
Format settings, Endianness              : Big
Codec ID                                 : A_AC3
Duration                                 : 1h 40mn
Bit rate mode                            : Constant
Bit rate                                 : 192 Kbps
Channel(s)                               : 2 channels
Channel positions                        : Front: L R
Sampling rate                            : 48.0 KHz
Bit depth                                : 16 bits
Compression mode                         : Lossy
Stream size                              : 138 MiB (3%)
Language                                 : Russian
Default                                  : Yes
Forced                                   : No
Audio #2
ID                                       : 3
Format                                   : DTS
Format/Info                              : Digital Theater Systems
Mode                                     : 16
Format settings, Endianness              : Big
Codec ID                                 : A_DTS
Duration                                 : 1h 40mn
Bit rate mode                            : Constant
Bit rate                                 : 1 509 Kbps
Channel(s)                               : 6 channels
Channel positions                        : Front: L C R, Side: L R, LFE
Sampling rate                            : 48.0 KHz
Bit depth                                : 16 bits
Compression mode                         : Lossy
Stream size                              : 1.06 GiB (21%)
Language                                 : English
Default                                  : No
Forced                                   : No
Text
ID                                       : 4
Format                                   : PGS
Muxing mode                              : zlib
Codec ID                                 : S_HDMV/PGS
Codec ID/Info                            : The same subtitle format used on BDs/HD-DVDs
Language                                 : German
Default                                  : No
Forced                                   : No
Menu
00:00:00.000                             : en:00:00:00.000
00:09:42.499                             : en:00:09:42.499
00:16:48.799                             : en:00:16:48.799
00:25:24.690                             : en:00:25:24.690
00:32:50.719                             : en:00:32:50.719
00:43:19.555                             : en:00:43:19.555
00:49:27.798                             : en:00:49:27.798
00:58:26.837                             : en:00:58:26.837
01:08:11.170                             : en:01:08:11.170
01:16:23.287                             : en:01:16:23.287
01:24:09.503                             : en:01:24:09.503
01:32:10.066                             : en:01:32:10.066

Скриншоты

Ссылка на предыдущие и альтернативные раздачи

http://rutracker.org/forum/tracker.php?nm=Молодежь%...F%20Young%20Ones

_________________
Показать сообщения:    

Текущее время: Сегодня 14:48

Часовой пояс: GMT



Вы не можете начинать темы
Вы не можете отвечать на сообщения
Вы не можете редактировать свои сообщения
Вы не можете удалять свои сообщения
Вы не можете голосовать в опросах
Вы не можете прикреплять файлы к сообщениям
Вы не можете скачивать файлы