Ивановский Торрент трекер
Яндекс.Погода
 

[Цитировать]
димитри37

Молодая жена
Название: Молодая жена
Страна: СССР
Жанр: драма
Год выпуска: 1978
Продолжительность: 01:32:59
Перевод: Не требуется
Режиссёр: Леонид Менакер
В ролях: Анна Каменкова, Владлен Бирюков, Галина Макарова, Сергей Проханов, Елена Мельникова (озвучание - Елена Драпеко), Наталья Назарова, Соня Джишкариани, Валентина Владимирова, Т.Горлова, Анатолий Рудаков, Игорь Озеров, Любовь Соколова, Игорь Эрельт (озвучание - Игорь Ефимов), Елена Аржаник, Олег В.Ефремов, Владимир Карпенко, Эльвира Колотухина, Станислав Соколов, Александр Суснин, Владимир Студенников, Олег Хроменков, Елена Хотяновская, Гелий Сысоев, Юрий Ароян, Б.Волков, Лидия Доротенко, Татьяна Маневская

Описание: Маня и Володя полюбили друг друга еще в седьмом классе сельской школы, когда парень ушел в армию, девушка ждала его. А Володя вернулся и… привез на свадьбу сестры новую подружку. От нанесенной обиды Маня - назло всему свету и самой себе - согласилась выйти замуж за Алексея, вдовца средних лет, имеющего маленькую дочь. Работящий и хозяйственный мужчина, казалось, мог бы стать для своей жены «каменной стеной», но трудно оказалось Мане в доме мужа, который пытался отгородить ее от жизни, от людей. И Маня, наперекор его воле, уехала в город - сдавать вступительные экзамены в заочный техникум…
Качество видео: DVDRip-AVC
Формат видео: MKV
Видео: MPEG-4 AVC x264, 718x472@1022x472 (2.20:1), 25 fps, 1900 Kbps
Аудио: AC3, 48.0 KHz, 2 ch, 192 Kbps

MediaInfo

General
Unique ID : 324704619282301419571505977117899984431 (0xF447D5BE57FBBAC91E53ACBA61D38E2F)
Complete name : /media/2.0 TB/Мои.рипы/Molodaya.zhena.1978.x264.DVDRip.(AVC).lx1966.mkv
Format : Matroska
Format version : Version 2
File size : 1.36 GiB
Duration : 1h 32mn
Overall bit rate : 2 094 Kbps
Movie name : Molodaya.zhena.1978.x264.718x472@1022x472.DVDRip.(AVC).Rip.by.lx1966.mkv
Encoded date : UTC 2013-01-24 12:36:51
Writing application : mkvmerge v5.1.0 ('And so it goes') built on Feb 1 2012 11:31:23
Writing library : libebml v1.2.2 + libmatroska v1.3.0
Video
ID : 1
Format : AVC
Format/Info : Advanced Video Codec
Format profile : High@L3.1
Format settings, CABAC : Yes
Format settings, ReFrames : 10 frames
Codec ID : V_MPEG4/ISO/AVC
Duration : 1h 32mn
Bit rate : 1 900 Kbps
Width : 718 pixels
Height : 472 pixels
Display aspect ratio : 2.2:1
Frame rate : 25.000 fps
Color space : YUV
Chroma subsampling : 4:2:0
Bit depth : 8 bits
Scan type : Progressive
Bits/(Pixel*Frame) : 0.224
Stream size : 1.21 GiB (89%)
Title : Режиссёр Леонид Менакер
Writing library : x264 core 120
Encoding settings : cabac=1 / ref=10 / deblock=1:-2:-2 / analyse=0x3:0x133 / me=umh / subme=9 / psy=1 / psy_rd=1,00:0,20 / mixed_ref=1 / me_range=24 / chroma_me=1 / trellis=2 / 8x8dct=1 / cqm=0 / deadzone=21,11 / fast_pskip=1 / chroma_qp_offset=-3 / threads=6 / sliced_threads=0 / nr=0 / decimate=1 / interlaced=0 / bluray_compat=0 / constrained_intra=0 / bframes=10 / b_pyramid=2 / b_adapt=2 / b_bias=0 / direct=3 / weightb=1 / open_gop=0 / weightp=1 / keyint=250 / keyint_min=25 / scenecut=40 / intra_refresh=0 / rc_lookahead=60 / rc=2pass / mbtree=1 / bitrate=1900 / ratetol=1,0 / qcomp=0,60 / qpmin=3 / qpmax=69 / qpstep=4 / cplxblur=20,0 / qblur=0,5 / ip_ratio=1,40 / aq=1:1,00
Language : Russian
Default : Yes
Forced : No
Color primaries : BT.601-6 525, BT.1358 525, BT.1700 NTSC, SMPTE 170M
Transfer characteristics : BT.709-5, BT.1361
Matrix coefficients : BT.601-6 525, BT.1358 525, BT.1700 NTSC, SMPTE 170M
Audio
ID : 2
Format : AC-3
Format/Info : Audio Coding 3
Mode extension : CM (complete main)
Codec ID : A_AC3
Duration : 1h 32mn
Bit rate mode : Constant
Bit rate : 192 Kbps
Channel(s) : 2 channels
Channel positions : Front: L R
Sampling rate : 48.0 KHz
Bit depth : 16 bits
Compression mode : Lossy
Stream size : 128 MiB (9%)
Title : AC-3 192 Kbps 2 ch 48.0 KHz 16 bits
Language : Russian
Default : Yes
Forced : No

Лог кодирования

[17:02:22] gtkgui: HandBrake 0.9.8 (2012071800) - Linux i686 - http://handbrake.fr
[20:48:35] starting job
[20:48:35] sync: expecting 139498 video frames
[20:48:35] job configuration:
[20:48:35] * source
[20:48:35] + /home/alexey/Видео/Molodaja.schena.1978.DVD-5
[20:48:35] + title 2, chapter(s) 1 to 6
[20:48:35] * destination
[20:48:35] + /home/alexey/Видео/Molodaja.schena.1978.mkv
[20:48:35] + container: Matroska (.mkv)
[20:48:35] + chapter markers
[20:48:35] * video track
[20:48:35] + decoder: mpeg2
[20:48:35] + bitrate 8000 kbps
[20:48:35] + frame rate: 25,000 fps -> constant 25,000 fps
[20:48:35] + custom anamorphic
[20:48:35] + storage dimensions: 720 * 576 -> 718 * 472, crop 52/52/2/0, mod 2
[20:48:35] + pixel aspect ratio: 511 / 359
[20:48:35] + display dimensions: 1022 * 472
[20:48:35] + encoder: H.264 (x264)
[20:48:35] + options: weightp=1:subq=9:rc-lookahead=60:trellis=2:ref=10:bframes=10:me=umh:merange=24:direct=auto:b-adapt=2:partitions=all:deblock=-2,-2:psy-rd=1|0,2
[20:48:35] + bitrate: 1900 kbps, pass: 2
x264 [info]: profile High, level 3.1
x264 [info]: frame I:673 Avg QP:15,61 size: 49384 PSNR Mean Y:48,62 U:50,38 V:51,07 Avg:49,20 Global:48,99
x264 [info]: frame P:25522 Avg QP:18,03 size: 20642 PSNR Mean Y:46,47 U:48,36 V:49,13 Avg:47,09 Global:46,73
x264 [info]: frame B:113303 Avg QP:20,32 size: 6754 PSNR Mean Y:44,73 U:47,39 V:48,24 Avg:45,53 Global:45,36
x264 [info]: consecutive B-frames: 0,7% 0,8% 3,5% 12,2% 14,5% 46,7% 10,3% 5,2% 2,8% 2,3% 0,9%
x264 [info]: mb I I16..4: 8,4% 69,4% 22,2%
x264 [info]: mb P I16..4: 1,5% 18,5% 2,4% P16..4: 38,2% 22,3% 14,6% 1,2% 0,4% skip: 0,8%
x264 [info]: mb B I16..4: 0,1% 1,7% 0,1% B16..8: 44,7% 10,6% 2,0% direct:14,3% skip:26,5% L0:43,0% L1:41,3% BI:15,7%
x264 [info]: 8x8 transform intra:82,4% inter:57,6%
x264 [info]: direct mvs spatial:99,6% temporal:0,4%
x264 [info]: coded y,uvDC,uvAC intra: 92,6% 88,1% 68,0% inter: 40,7% 45,3% 5,8%
x264 [info]: i16 v,h,dc,p: 20% 16% 15% 48%
x264 [info]: i8 v,h,dc,ddl,ddr,vr,hd,vl,hu: 20% 8% 7% 8% 11% 14% 9% 13% 11%
x264 [info]: i4 v,h,dc,ddl,ddr,vr,hd,vl,hu: 20% 9% 4% 8% 12% 15% 10% 12% 10%
x264 [info]: i8c dc,h,v,p: 39% 20% 26% 16%
x264 [info]: Weighted P-Frames: Y:20,2% UV:11,3%
x264 [info]: ref P L0: 44,0% 22,3% 12,2% 6,7% 5,0% 3,8% 3,0% 1,7% 1,2% 0,0%
x264 [info]: ref B L0: 72,0% 13,6% 6,0% 3,0% 2,1% 1,5% 1,1% 0,4% 0,2%
x264 [info]: ref B L1: 93,0% 7,0%
x264 [info]: SSIM Mean Y:0,9782531 (16,626db)
x264 [info]: PSNR Mean Y:45,070 U:47,586 V:48,417 Avg:45,829 Global:45,593 kb/s:1900,09
[00:01:58] libhb: work result = 0

Скриншоты


-
0 человек читают эту тему: 0 пользователей, 0 скрытых пользователей, 0 гостей

Показать сообщения:    

Текущее время: 23-Авг 05:26

Часовой пояс: UTC - 1


Вы не можете начинать темы
Вы не можете отвечать на сообщения
Вы не можете редактировать свои сообщения
Вы не можете удалять свои сообщения
Вы не можете голосовать в опросах
Вы не можете прикреплять файлы к сообщениям
Вы не можете скачивать файлы

!ВНИМАНИЕ!
Сайт не предоставляет электронные версии произведений, а занимается лишь коллекционированием и каталогизацией ссылок, присылаемых и публикуемых на форуме нашими читателями. Если вы являетесь правообладателем какого-либо представленного материала и не желаете, чтобы ссылка на него находилась в нашем каталоге, свяжитесь с нами, и мы незамедлительно удалим ее. Файлы для обмена на трекере предоставлены пользователями сайта, и администрация не несет ответственности за их содержание. Просьба не заливать файлы, защищенные авторскими правами, а также файлы нелегального содержания!