Ивановский Торрент трекер
Яндекс.Погода
Статистика раздачи
Размер:  6.57 GB   |    Зарегистрирован:  1 год 8 месяцев   |    Скачан:  0 раз

Полного источника не было: Никогда

 
     
 
 
 

[Цитировать]
HUNTER

Моли о смерти / Pray for Death«The Master Ninja is Back»________________________________________________________________________________________
Страна: США
Студия: Pray Films, Trans World Entertainment
Жанр: боевик, драма
Год выпуска: 1985
Продолжительность: 01:34:29
Перевод 1: Профессиональный (двухголосый закадровый) | НТВ+
Перевод 2: Авторский (одноголосый закадровый) | Леонид Володарский
Оригинальная аудиодорожка: английский
Cубтитры: нет
Режиссер: Гордон Хесслер / Gordon Hessler
В ролях: Сё Косуги, Джеймс Бут, Донна Кай Бенц, Норман Бёртон, Кейн Косуги, Шейн Косуги, Мэттью Фэйзон, Парли Баэр, Роберт Ито, Майкл Константин, Алан Амиел, Вуди Уотсон, Чарльз Грюбер, Ник Хэглер
Описание: Мастер-ниндзя, тщательно скрывающий свое умение, поселяется в Америке, чтобы спокойно воспитывать детей вместе со своей женой, наполовину американкой. Однако его дом, семья и честь подвергается опасности со стороны местных ганстеров. Приходится перевоплощаться в незнающего жалости ниндзя и расправляться с врагами…
________________________________________________________________________________________

Исходник: MediaClub (rip by MINION)
Тип релиза: BDRip 720p
Контейнер: MKV
Видео: 1280x548 at 23.976 fps, x264@L4.1, ~9000 kbps avg
Аудио 1: Russian: 48 kHz, AC3, 2/0 (L,R), ~192 kbps avg |Двухголосый, HTB+|
Аудио 2: Russian: 48 kHz, AC3, 2/0 (L,R), ~192 kbps avg |Одноголосый, Л. Володарский|
Аудио 3: English: 48 kHz, FLAC, 2/0 (L,R) ch, ~577 kbps avg |Original|
Cубтитры: none

MediaInfo + x264

x264 [info]: frame I:997 Avg QP:16.96 size:126748
x264 [info]: frame P:26559 Avg QP:18.71 size: 73736
x264 [info]: frame B:108366 Avg QP:20.42 size: 39561
x264 [info]: consecutive B-frames: 1.7% 2.2% 5.7% 15.0% 15.3% 34.3% 9.3% 3.4% 3.5% 4.1% 2.5% 1.6% 1.5%
General
Unique ID : 255129682473753384848732352362087559075 (0xBFF030843D6AC61EA9D58D07FCE5AFA3)
Complete name : D:\Pray.for.Death.1985.BDRip.720p.2xRus.Eng.-MediaClub.mkv
Format : Matroska
Format version : Version 4 / Version 2
File size : 6.57 GiB
Duration : 1h 34mn
Overall bit rate mode : Variable
Overall bit rate : 9 956 Kbps
Movie name : Моли о смерти / Pray for Death (1985)
Encoded date : UTC 2016-03-20 05:21:36
Writing application : mkvmerge v8.9.0 ('Father Daughter') 64bit
Writing library : libebml v1.3.3 + libmatroska v1.4.4
Cover : Yes
Attachments : cover.jpg / Log x264.log
Video
ID : 1
Format : AVC
Format/Info : Advanced Video Codec
Format profile : High@L4.1
Format settings, CABAC : Yes
Format settings, ReFrames : 9 frames
Codec ID : V_MPEG4/ISO/AVC
Duration : 1h 34mn
Bit rate : 9 000 Kbps
Width : 1 280 pixels
Height : 548 pixels
Display aspect ratio : 2.35:1
Frame rate mode : Constant
Frame rate : 23.976 (24000/1001) fps
Color space : YUV
Chroma subsampling : 4:2:0
Bit depth : 8 bits
Scan type : Progressive
Bits/(Pixel*Frame) : 0.535
Stream size : 5.93 GiB (90%)
Title : Моли о смерти / Pray for Death 1985 BDRip 720p [MediaClub - MINION]
Writing library : x264 core 148 r2638 7599210
Encoding settings : cabac=1 / ref=9 / deblock=1:-3:-3 / analyse=0x3:0x133 / me=umh / subme=11 / psy=1 / psy_rd=1.00:0.10 / mixed_ref=1 / me_range=48 / chroma_me=1 / trellis=2 / 8x8dct=1 / cqm=0 / deadzone=21,11 / fast_pskip=0 / chroma_qp_offset=-3 / threads=6 / lookahead_threads=1 / sliced_threads=0 / nr=0 / decimate=0 / interlaced=0 / bluray_compat=0 / constrained_intra=0 / bframes=12 / b_pyramid=2 / b_adapt=2 / b_bias=0 / direct=3 / weightb=1 / open_gop=0 / weightp=2 / keyint=240 / keyint_min=23 / scenecut=40 / intra_refresh=0 / rc=2pass / mbtree=0 / bitrate=9000 / ratetol=1.0 / qcomp=0.60 / qpmin=10 / qpmax=51 / qpstep=4 / cplxblur=20.0 / qblur=0.5 / ip_ratio=1.40 / pb_ratio=1.30 / aq=1:1.00
Language : English
Default : Yes
Forced : No
Audio #1
ID : 2
Format : AC-3
Format/Info : Audio Coding 3
Mode extension : CM (complete main)
Format settings, Endianness : Big
Codec ID : A_AC3
Duration : 1h 34mn
Bit rate mode : Constant
Bit rate : 192 Kbps
Channel(s) : 2 channels
Channel positions : Front: L R
Sampling rate : 48.0 KHz
Frame rate : 31.250 fps (1536 spf)
Compression mode : Lossy
Stream size : 130 MiB (2%)
Title : DVO - НТВ+
Language : Russian
Default : Yes
Forced : No
Audio #2
ID : 3
Format : AC-3
Format/Info : Audio Coding 3
Mode extension : CM (complete main)
Format settings, Endianness : Big
Codec ID : A_AC3
Duration : 1h 34mn
Bit rate mode : Constant
Bit rate : 192 Kbps
Channel(s) : 2 channels
Channel positions : Front: L R
Sampling rate : 48.0 KHz
Frame rate : 31.250 fps (1536 spf)
Compression mode : Lossy
Stream size : 130 MiB (2%)
Title : AVO - Леонид Володарский
Language : Russian
Default : No
Forced : No
Audio #3
ID : 4
Format : FLAC
Format/Info : Free Lossless Audio Codec
Codec ID : A_FLAC
Duration : 1h 34mn
Bit rate mode : Variable
Bit rate : 577 Kbps
Channel(s) : 2 channels
Channel positions : Front: L R
Sampling rate : 48.0 KHz
Frame rate : 11.719 fps (4096 spf)
Bit depth : 16 bits
Stream size : 390 MiB (6%)
Writing library : libFLAC 1.3.1 (UTC 2014-11-25)
Language : English
Default : No
Forced : No
Menu
00:00:00.000 : en:00:00:00.000
00:05:01.592 : en:00:05:01.592
00:09:58.848 : en:00:09:58.848
00:18:27.272 : en:00:18:27.272
00:23:47.342 : en:00:23:47.342
00:25:41.081 : en:00:25:41.081
00:31:30.388 : en:00:31:30.388
00:38:08.619 : en:00:38:08.619
00:42:29.588 : en:00:42:29.588
00:50:40.412 : en:00:50:40.412
00:57:00.917 : en:00:57:00.917
01:02:40.006 : en:01:02:40.006
01:07:26.709 : en:01:07:26.709
01:12:02.693 : en:01:12:02.693
01:19:35.979 : en:01:19:35.979
01:31:15.011 : en:01:31:15.011

Скриншоты


[iv-torrents.ru].t55430.torrent
Торрент: Зарегистрирован [ 2016-03-21 20:50 ] · 22137DCF3C4C770ACAF86ABBA5736E4387B0F538

Скачать .torrent

Скачать

17 KB

Статус: проверено
Скачан: 0 раз
Размер: 6.57 GB
terms.php


Показать сообщения:    

Текущее время: 16-Дек 05:16

Часовой пояс: UTC ± 0


Вы не можете начинать темы
Вы не можете отвечать на сообщения
Вы не можете редактировать свои сообщения
Вы не можете удалять свои сообщения
Вы не можете голосовать в опросах
Вы не можете прикреплять файлы к сообщениям
Вы можете скачивать файлы

!ВНИМАНИЕ!
Сайт не предоставляет электронные версии произведений, а занимается лишь коллекционированием и каталогизацией ссылок, присылаемых и публикуемых на форуме нашими читателями. Если вы являетесь правообладателем какого-либо представленного материала и не желаете, чтобы ссылка на него находилась в нашем каталоге, свяжитесь с нами, и мы незамедлительно удалим ее. Файлы для обмена на трекере предоставлены пользователями сайта, и администрация не несет ответственности за их содержание. Просьба не заливать файлы, защищенные авторскими правами, а также файлы нелегального содержания!