Важное объявление!
У Нас Все раздачи мультитрекерные, при нуле пиров в релизах, можете смело вставать на закачку!
 
Автор Сообщение

ForZe

Стаж:
4 года 9 месяцев
Сообщений:
182

Репутация: 30

[+] [-]
Вне форума [Профиль] [ЛС]

Мой парень из зоопарка / Zookeeper«Добро пожаловать в его джунгли»
-
Страна: США
Жанр: Мелодрама, Комедия, Семейный
Год выпуска: 2011
Продолжительность: 01:41:53-Перевод: Профессиональный (дублированный) | Лицензия
Cубтитры Русские (форсированные + полные), Английские
Оригинальная аудиодорожка: Английский-Режиссер: Фрэнк Корачи / Frank Coraci-В ролях: Кевин Джеймс / Kevin James, Розарио Доусон / Rosario Dawson, Лесли Бибб / Leslie Bibb, Кен Жонг / Ken Jeong, Донни Уолберг / Donnie Wahlberg, Джо Роган / Joe Rogan, Нат Факсон / Nat Faxon, Стеффиана Де Ла Круз / Steffiana De La Cruz, Ник Бакай / Nick Bakay, Джеки Сэндлер / Jackie Sandler-Описание:
Звери пытаются научить незадачливого смотрителя зоопарка методам обольщения противоположного пола для того, чтобы тот, наконец, завоевал сердце любимой девушки.
- -Качество видео: BDRip-AVC | исх. Zookeeper.2011.BluRay.1080p.AVC.DTS-HD.MA5.1-CHDBits
Формат видео: MKV-Видео: H.264 / 1152 x 480 / 2.40:1 / 2298 kbps / 23,976 fps
Аудио 1: Русский / AC3 Dolby Digital / 48 KHz / 384 kbps / 3/2 (L,C,R,l,r) + LFE ch
Аудио 2: Английский / AC3 Dolby Digital / 48 KHz / 384 kbps / 3/2 (L,C,R,l,r) + LFE ch
Формат субтитров: softsub (SRT)-СЭМПЛ-Релиз: -

MediaInfo/log

log

Код:
avs [info]: 1152x480p 1:1 @ 24000/1001 fps (cfr)
x264 [info]: using SAR=1/1
x264 [info]: using cpu capabilities: MMX2 SSE2Fast SSSE3 FastShuffle SSE4.2
x264 [info]: profile High, level 4.1
x264 [info]: frame I:1756  Avg QP:17.51  size: 82135
x264 [info]: frame P:31377 Avg QP:19.63  size: 22105
x264 [info]: frame B:113435 Avg QP:20.51  size:  8098
x264 [info]: consecutive B-frames:  2.1%  2.1%  5.8% 28.4% 18.2% 30.9%  5.5%  5.1%  0.9%  0.2%  0.2%  0.5%
x264 [info]: mb I  I16..4:  9.1% 67.2% 23.7%
x264 [info]: mb P  I16..4:  0.5%  5.9%  1.2%  P16..4: 38.4% 26.7% 15.9%  0.0%  0.0%    skip:11.3%
x264 [info]: mb B  I16..4:  0.0%  0.4%  0.1%  B16..8: 37.9% 10.8%  3.2%  direct: 5.6%  skip:41.9%  L0:40.7% L1:46.1% BI:13.2%
x264 [info]: 8x8 transform intra:72.7% inter:58.5%
x264 [info]: direct mvs  spatial:98.2% temporal:1.8%
x264 [info]: coded y,uvDC,uvAC intra: 90.3% 87.9% 71.3% inter: 22.9% 16.8% 3.7%
x264 [info]: i16 v,h,dc,p: 22% 16% 24% 39%
x264 [info]: i8 v,h,dc,ddl,ddr,vr,hd,vl,hu: 11% 11%  6%  9% 13% 13% 13% 12% 13%
x264 [info]: i4 v,h,dc,ddl,ddr,vr,hd,vl,hu: 10% 10%  4% 10% 15% 14% 14% 11% 14%
x264 [info]: i8c dc,h,v,p: 40% 23% 19% 18%
x264 [info]: Weighted P-Frames: Y:2.6% UV:0.8%
x264 [info]: ref P L0: 47.7% 10.6% 17.9%  6.2%  5.4%  3.5%  3.1%  1.5%  1.5%  1.2%  1.3%  0.1%  0.0%
x264 [info]: ref B L0: 73.4% 11.9%  5.3%  2.9%  2.4%  1.6%  1.2%  0.7%  0.4%  0.2%
x264 [info]: ref B L1: 92.7%  7.3%
x264 [info]: kb/s:2298.56
General
Unique ID : 192150725823870970797132127229682715102 (0x908EE238325A76848FDBC5B3D8F909DE)
Complete name : I:\Other\Moi.Paren.Iz.Zooparka.2011.DUAL.BDRip-AVC.AC3.-HQ-ViDEO.mkv
Format : Matroska
Format version : Version 2
File size : 2.18 GiB
Duration : 1h 41mn
Overall bit rate : 3 069 Kbps
Movie name : Moi Paren Iz Zooparka / 2011 / Release by Vaippp / HQ-ViDEO
Encoded date : UTC 2011-09-26 03:49:24
Writing application : mkvmerge v4.9.1 ('Ich will') сборка от Jul 11 2011 23:53:15
Writing library : libebml v1.2.1 + libmatroska v1.1.1
Video
ID : 1
Format : AVC
Format/Info : Advanced Video Codec
Format profile : High@L4.1
Format settings, CABAC : Yes
Format settings, ReFrames : 11 frames
Codec ID : V_MPEG4/ISO/AVC
Duration : 1h 41mn
Bit rate : 2 298 Kbps
Width : 1 152 pixels
Height : 480 pixels
Display aspect ratio : 2.40:1
Frame rate : 23.976 fps
Color space : YUV
Chroma subsampling : 4:2:0
Bit depth : 8 bits
Scan type : Progressive
Bits/(Pixel*Frame) : 0.173
Stream size : 1.59 GiB (73%)
Title : BDRip 26/09/2011
Writing library : x264 core 118 r2085 8a62835
Encoding settings : cabac=1 / ref=11 / deblock=1:-2:-1 / analyse=0x3:0x113 / me=umh / subme=10 / psy=1 / psy_rd=1.05:0.10 / mixed_ref=1 / me_range=32 / chroma_me=1 / trellis=2 / 8x8dct=1 / cqm=0 / deadzone=21,11 / fast_pskip=0 / chroma_qp_offset=-2 / threads=12 / sliced_threads=0 / nr=0 / decimate=1 / interlaced=0 / bluray_compat=0 / constrained_intra=0 / bframes=11 / b_pyramid=2 / b_adapt=2 / b_bias=0 / direct=3 / weightb=1 / open_gop=0 / weightp=2 / keyint=250 / keyint_min=23 / scenecut=40 / intra_refresh=0 / rc_lookahead=40 / rc=2pass / mbtree=0 / bitrate=2298 / ratetol=1.0 / qcomp=0.65 / qpmin=0 / qpmax=69 / qpstep=4 / cplxblur=20.0 / qblur=0.5 / vbv_maxrate=40000 / vbv_bufsize=30000 / nal_hrd=none / ip_ratio=1.40 / pb_ratio=1.30 / aq=2:0.90 / zones=135553,146567,b=0.5
Language : English
Matrix coefficients : BT.709-5, BT.1361, IEC 61966-2-4 709, SMPTE RP177
Audio #1
ID : 2
Format : AC-3
Format/Info : Audio Coding 3
Mode extension : CM (complete main)
Codec ID : A_AC3
Duration : 1h 41mn
Bit rate mode : Constant
Bit rate : 384 Kbps
Channel(s) : 6 channels
Channel positions : Front: L C R, Side: L R, LFE
Sampling rate : 48.0 KHz
Bit depth : 16 bits
Compression mode : Lossy
Stream size : 280 MiB (13%)
Title : DUB | R5
Language : Russian
Audio #2
ID : 3
Format : AC-3
Format/Info : Audio Coding 3
Mode extension : CM (complete main)
Codec ID : A_AC3
Duration : 1h 41mn
Bit rate mode : Constant
Bit rate : 384 Kbps
Channel(s) : 6 channels
Channel positions : Front: L C R, Side: L R, LFE
Sampling rate : 48.0 KHz
Bit depth : 16 bits
Compression mode : Lossy
Stream size : 280 MiB (13%)
Title : Original
Language : English
Text #1
ID : 4
Format : UTF-8
Codec ID : S_TEXT/UTF8
Codec ID/Info : UTF-8 Plain Text
Title : Forced
Language : Russian
Text #2
ID : 5
Format : UTF-8
Codec ID : S_TEXT/UTF8
Codec ID/Info : UTF-8 Plain Text
Title : Full
Language : Russian
Text #3
ID : 6
Format : UTF-8
Codec ID : S_TEXT/UTF8
Codec ID/Info : UTF-8 Plain Text
Language : English
Menu
00:00:00.000 : en:00:00:00.000
00:07:51.388 : en:00:07:51.388
00:14:46.928 : en:00:14:46.928
00:18:54.258 : en:00:18:54.258
00:23:48.886 : en:00:23:48.886
00:31:16.500 : en:00:31:16.500
00:36:44.911 : en:00:36:44.911
00:39:50.513 : en:00:39:50.513
00:44:37.341 : en:00:44:37.341
00:52:03.245 : en:00:52:03.245
00:59:30.567 : en:00:59:30.567
01:04:32.911 : en:01:04:32.911
01:10:46.159 : en:01:10:46.159
01:14:44.021 : en:01:14:44.021
01:21:16.497 : en:01:21:16.497
01:26:10.165 : en:01:26:10.165

Скриншоты



_________________
Отдам инвайты на Dota 2! Если кому нужны пишите в лс
Показать сообщения:    

Текущее время: Сегодня 01:52

Часовой пояс: GMT



Вы не можете начинать темы
Вы не можете отвечать на сообщения
Вы не можете редактировать свои сообщения
Вы не можете удалять свои сообщения
Вы не можете голосовать в опросах
Вы не можете прикреплять файлы к сообщениям
Вы не можете скачивать файлы