Важное объявление!
У Нас Все раздачи мультитрекерные, при нуле пиров в релизах, можете смело вставать на закачку!
 
Автор Сообщение

димитри37

Стаж:
3 года 10 месяцев
Сообщений:
1237

Репутация: 127

[+] [-]
Вне форума [Профиль] [ЛС]

Мой младший брат-
Страна: СССР
Перевод: Не требуется
Жанр: драма
Год выпуска: 1962
Продолжительность: 01:38:04-Режиссёр: Александр Зархи-В ролях:
Людмила Марченко - Галя Бодрова
Олег Ефремов - Виктор Денисов
Александр Збруев - Димка Денисов
Олег Даль - Алик Крамер
Андрей Миронов - Юрка Попов
Иван Савкин - капитан
Арво Круусемент - Матти
Яан Сауль - Эндель
Виллу Томингас - Густав
Сергей Курилов - Иннокентий Петров
Михаил Названов - профессор
Валентин Кулик - Долгов
Олег Голубицкий - Борис Голубев
Описание:
По повести Василия Аксёнова «Звёздный билет». Позади выпускные экзамены — и четверка школьных друзей решает махнуть в Прибалтику, подальше от надоевшей опеки взрослых. Брат одного из героев пытается внушить им что-то правильное насчет серьезного отношения к жизни — но они не меняют своего «безответственного» решения…- -Качество видео: DVDRip-AVC
Формат видео: MKV
Видео: x264 (High@L4.1); Анаморф 704@750x572; Display aspect ratio: 4:3, 25.000 fps, 1930 Kbps
Аудио: Оригинал: AC-3; 16 bit 48 Khz; 2.0 ch 192 Kbps; CBR.

MediaInfo

General
Unique ID : 227684787279713694258517973834573187232 (0xAB4A7EB6605F6097ADBEA32E863688A0)
Complete name : Мой младший брат.1962.mkv
Format : Matroska
Format version : Version 2
File size : 1.45 GiB
Duration : 1h 38mn
Overall bit rate : 2 123 Kbps
Movie name : «Мой младший брат»
Encoded date : UTC 2013-01-20 18:52:18
Writing application : mkvmerge v5.8.0 ('No Sleep / Pillow') built on Sep 2 2012 15:37:04
Writing library : libebml v1.2.3 + libmatroska v1.3.0
Comment : DVDRip-AVC
Original date released : January 20th 2013
Encoded by : imgeorgest®
Video
ID : 1
Format : AVC
Format/Info : Advanced Video Codec
Format profile : High@L4.1
Format settings, CABAC : Yes
Format settings, ReFrames : 16 frames
Codec ID : V_MPEG4/ISO/AVC
Duration : 1h 38mn
Bit rate : 1 930 Kbps
Width : 704 pixels
Height : 572 pixels
Display aspect ratio : 4:3
Original display aspect ratio : 4:3
Frame rate : 25.000 fps
Color space : YUV
Chroma subsampling : 4:2:0
Bit depth : 8 bits
Scan type : Progressive
Bits/(Pixel*Frame) : 0.192
Stream size : 1.29 GiB (89%)
Title : Мой младший брат.1962
Writing library : x264 core 125 r2200 999b753
Encoding settings : cabac=1 / ref=16 / deblock=1:-1:-1 / analyse=0x3:0x133 / me=umh / subme=11 / psy=1 / psy_rd=1.05:0.20 / mixed_ref=1 / me_range=48 / chroma_me=1 / trellis=2 / 8x8dct=1 / cqm=0 / deadzone=21,11 / fast_pskip=0 / chroma_qp_offset=-3 / threads=12 / lookahead_threads=2 / sliced_threads=0 / nr=0 / decimate=0 / interlaced=0 / bluray_compat=0 / constrained_intra=0 / bframes=9 / b_pyramid=2 / b_adapt=2 / b_bias=0 / direct=3 / weightb=1 / open_gop=0 / weightp=2 / keyint=250 / keyint_min=25 / scenecut=40 / intra_refresh=0 / rc_lookahead=40 / rc=2pass / mbtree=0 / bitrate=1930 / ratetol=1.0 / qcomp=0.60 / qpmin=0 / qpmax=69 / qpstep=4 / cplxblur=20.0 / qblur=0.5 / vbv_maxrate=50000 / vbv_bufsize=62500 / nal_hrd=none / ip_ratio=1.40 / pb_ratio=1.30 / aq=1:1.00
Language : Russian
Default : Yes
Forced : No
Color primaries : BT.470-6 System B, BT.470-6 System G, BT.601-6 625, BT.1358 625, BT.1700 625 PAL, BT.1700 625 SECAM
Transfer characteristics : BT.470-6 System B, BT.470-6 System G
Matrix coefficients : BT.470-6 System B, BT.470-6 System G, BT.601-6 625, BT.1358 625, BT.1700 625 PAL, BT.1700 625 SECAM, IEC 61966-2-4 601
Audio
ID : 2
Format : AC-3
Format/Info : Audio Coding 3
Mode extension : CM (complete main)
Codec ID : A_AC3
Duration : 1h 38mn
Bit rate mode : Constant
Bit rate : 192 Kbps
Channel(s) : 2 channels
Channel positions : Front: L R
Sampling rate : 48.0 KHz
Bit depth : 16 bits
Compression mode : Lossy
Stream size : 135 MiB (9%)
Title : Оригинал: AC-3; 16 bit 48 Khz; 2.0 ch 192 Kbps; CBR.
Language : Russian
Default : Yes
Forced : No

x264 log

...last pass...
x264.exe: --pass 2 --bitrate 1930 --preset medium --ref 16 --deblock -1:-1 --merange 48 --bframes 9 --direct auto --b-adapt 2 --trellis 2 --no-fast-pskip --no-dct-decimate --psy-rd 1.05:0.20 --vbv-maxrate 50000 --vbv-bufsize 62500 --partitions all --subme 11 --me umh --slow-firstpass --no-mbtree --colorprim bt470bg --transfer bt470bg --colormatrix bt470bg --sar 16:15 --stats "K:\Мой младший брат.1962.log" --output "K:\Мой младший брат.1962.mkv" "L:\Temp\1047.avs"
avs [info]: 704x572p 16:15 @ 25/1 fps (cfr)
x264 [info]: using SAR=16/15
x264 [info]: using cpu capabilities: MMX2 SSE2Fast SSSE3 FastShuffle SSE4.2
x264 [info]: profile High, level 4.1
x264 [info]: frame I:727 Avg QP:17.96 size: 34423
x264 [info]: frame P:33345 Avg QP:20.70 size: 16254
x264 [info]: frame B:113046 Avg QP:22.11 size: 7538
x264 [info]: consecutive B-frames: 1.1% 1.6% 7.5% 38.2% 22.0% 25.5% 2.9% 0.9% 0.2% 0.1%
x264 [info]: mb I I16..4: 7.0% 72.8% 20.2%
x264 [info]: mb P I16..4: 1.6% 16.3% 2.4% P16..4: 33.9% 33.7% 7.6% 1.9% 0.1% skip: 2.6%
x264 [info]: mb B I16..4: 0.3% 2.5% 0.3% B16..8: 33.3% 23.0% 3.6% direct: 9.8% skip:27.3% L0:38.3% L1:40.5% BI:21.2%
x264 [info]: 8x8 transform intra:80.4% inter:53.6%
x264 [info]: direct mvs spatial:99.9% temporal:0.1%
x264 [info]: coded y,uvDC,uvAC intra: 84.6% 5.2% 3.8% inter: 31.4% 0.9% 0.3%
x264 [info]: i16 v,h,dc,p: 49% 14% 4% 33%
x264 [info]: i8 v,h,dc,ddl,ddr,vr,hd,vl,hu: 12% 11% 9% 8% 10% 11% 12% 12% 16%
x264 [info]: i4 v,h,dc,ddl,ddr,vr,hd,vl,hu: 14% 11% 8% 7% 13% 12% 13% 10% 13%
x264 [info]: i8c dc,h,v,p: 78% 19% 2% 0%
x264 [info]: Weighted P-Frames: Y:28.0% UV:0.4%
x264 [info]: ref P L0: 43.1% 10.0% 15.0% 7.0% 5.3% 4.2% 3.6% 2.2% 1.9% 1.6% 1.4% 1.2% 1.1% 1.0% 0.8% 0.5%
x264 [info]: ref B L0: 80.1% 9.7% 3.3% 1.7% 1.2% 1.0% 0.8% 0.5% 0.4% 0.4% 0.3% 0.3% 0.2% 0.1% 0.1%
x264 [info]: ref B L1: 96.1% 3.9%
x264 [info]: kb/s:1929.35
x264 [total]: encoded 147118 frames, 9.79 fps, 1929.35 kb/s

FAQ по просмотру MKV/h.264/AAC

Скриншоты

Исходник

Сравнение

Сравнение с исходником:
http://screenshotcomparison.com/comparison/3496
Сравнение с раздачей:
http://rutracker.org/forum/viewtopic.php?t=3116129
http://screenshotcomparison.com/comparison/3497
-
Показать сообщения:    

Текущее время: Сегодня 10:10

Часовой пояс: GMT



Вы не можете начинать темы
Вы не можете отвечать на сообщения
Вы не можете редактировать свои сообщения
Вы не можете удалять свои сообщения
Вы не можете голосовать в опросах
Вы не можете прикреплять файлы к сообщениям
Вы не можете скачивать файлы
Наши партнеры: интернет магазин Ивановского трикотажа textilla.ru