Ивановский Торрент трекер
Яндекс.Погода
 

[Цитировать]
HUNTER

Мой маленький пони: Девочки из Эквестрии - Радужный рок / My Little Pony: Equestria Girls - Rainbow Rocks Страна: США, Канада
Жанр: Приключения, комедия, семейный, фэнтези
Продолжительность: 01:13:20
Год выпуска: 2014
Перевод 1: Профессиональный одноголосый (телеканал Kidzone)
Перевод 2: Профессиональный дублированный (телеканал Плюсплюс) (украинский)
Русские субтитры: нет
Режиссёр: Джэйсон Тиссен / Jayson Thiessen, Иши Руделл / Ishi Rudell
Роли озвучивали: Тара Стронг, Эшли Болл, Андреа Либман, Табита Сен-Жермен, Кэти Уэслак, Кэтлин Барр и другие.
Описание: В школе Кантерлот Хай состоится музыкальное представление, в котором решают поучаствовать Рэйнбоу Дэш, Эпплджек, Пинки Пай, Рэрити и Флаттершай со своей новой группой - "The Rainbooms". Но когда на сцене появляется новая группа девочек с броским названием "The Dazzlings", всё очень быстро превращается из дружеского состязания в настоящую Битву Групп. В то время как между противниками нарастает напряжение, исправившаяся Сансет Шиммер узнаёт, что девочки из группы "The Dazzlings" вовсе не так просты, как могут показаться, и преследуют цели куда более зловещие, чем завоевание титула Лучшей Группы Кантерлот Хай. "The Rainbooms" обращаются за помощью к Принцессе Твайлайт, чтобы та вернулась в их мир и помогла сотворить музыкальное контр-заклинание, способное помочь им в битве, которая определит дальнейшую судьбу всей школы.
Доп. информация: В раздаче представлены: профессиональный одноголосый закадровый перевод телеканала Kidzone (благодарность ALEKS KV), украинский дубляж телеканала Плюсплюс и оригинальная аудиодорожка. Дополнительные озвучки, а также русские и английские субтитры можно найти в отдельной раздаче, впрочем как и дополнительные материалы.
Предыдущие и альтернативные раздачи
Рейтинг:
Качество: BDRip (Исходник)
Формат: AVI
Видео: XviD, 720x400 (16:9), 23.976 fps, ~1990 kbps
Аудио 1 Rus: AC3 48 kHz, 2 ch, 192 kbps (телеканал Kidzone)
Аудио 2 Ukr: AC3 48 kHz, 2 ch, 192 kbps (телеканал Плюсплюс)
Аудио 3 Eng: AC3 48 kHz, 6 ch, 448 kbps (оригинальный звук)

Скриншоты

Подробные технические данные

ОбщееПолное имя : C:\Video\mlp.eg.rainbow.rocks.2014.bdrip.tv.aviФормат : AVIФормат/Информация : Audio Video InterleaveРазмер файла : 1,46 ГбайтПродолжительность : 1 ч. 13 м.Общий поток : 2841 Кбит/секПрограмма кодирования : VirtualDubMod 1.5.10.2 (build 2540/release)Библиотека кодирования : VirtualDubMod build 2540/release
ВидеоИдентификатор : 0Формат : MPEG-4 VisualПрофиль формата : Advanced Simple@L5Параметр BVOP формата : 1Параметр QPel формата : НетПараметр GMC формата : Без точки переходаПараметр матрицы формата : ВыборочнаяИдентификатор кодека : XVIDИдентификатор кодека/Подсказка : XviDПродолжительность : 1 ч. 13 м.Битрейт : 1990 Кбит/секШирина : 720 пикселейВысота : 400 пикселейСоотношение сторон : 16:9Частота кадров : 23,976 кадра/секЦветовое пространство : YUVСубдискретизация насыщенности : 4:2:0Битовая глубина : 8 битТип развёртки : ПрогрессивнаяМетод сжатия : С потерямиБит/(Пиксели*Кадры) : 0.288Размер потока : 1,02 Гбайт (70%)Библиотека кодирования : XviD 64
Аудио #1Идентификатор : 1Формат : AC-3Формат/Информация : Audio Coding 3Расширение режима : CM (complete main)Параметр Endianness формата : BigИдентификатор кодека : 2000Продолжительность : 1 ч. 13 м.Вид битрейта : ПостоянныйБитрейт : 192 Кбит/секКаналы : 2 каналаРасположение каналов : Front: L RЧастота : 48,0 КГцБитовая глубина : 16 битМетод сжатия : С потерямиРазмер потока : 101 Мбайт (7%)Выравнивание : Разделение по промежуткамПродолжительность промежутка : 42 мс. (1,00 видеокадр)Время предзагрузки промежутка : 500 мс.
Аудио #2Идентификатор : 2Формат : AC-3Формат/Информация : Audio Coding 3Расширение режима : CM (complete main)Параметр Endianness формата : BigИдентификатор кодека : 2000Продолжительность : 1 ч. 13 м.Вид битрейта : ПостоянныйБитрейт : 192 Кбит/секКаналы : 2 каналаРасположение каналов : Front: L RЧастота : 48,0 КГцБитовая глубина : 16 битМетод сжатия : С потерямиРазмер потока : 101 Мбайт (7%)Выравнивание : Разделение по промежуткамПродолжительность промежутка : 42 мс. (1,00 видеокадр)Время предзагрузки промежутка : 500 мс.
Аудио #3Идентификатор : 3Формат : AC-3Формат/Информация : Audio Coding 3Расширение режима : CM (complete main)Параметр Endianness формата : BigИдентификатор кодека : 2000Продолжительность : 1 ч. 13 м.Вид битрейта : ПостоянныйБитрейт : 448 Кбит/секКаналы : 6 каналовРасположение каналов : Front: L C R, Side: L R, LFEЧастота : 48,0 КГцБитовая глубина : 16 битМетод сжатия : С потерямиРазмер потока : 235 Мбайт (16%)Выравнивание : Разделение по промежуткамПродолжительность промежутка : 42 мс. (1,00 видеокадр)Время предзагрузки промежутка : 500 мс.


Показать сообщения:    

Текущее время: 15-Дек 06:42

Часовой пояс: UTC ± 0


Вы не можете начинать темы
Вы не можете отвечать на сообщения
Вы не можете редактировать свои сообщения
Вы не можете удалять свои сообщения
Вы не можете голосовать в опросах
Вы не можете прикреплять файлы к сообщениям
Вы не можете скачивать файлы

!ВНИМАНИЕ!
Сайт не предоставляет электронные версии произведений, а занимается лишь коллекционированием и каталогизацией ссылок, присылаемых и публикуемых на форуме нашими читателями. Если вы являетесь правообладателем какого-либо представленного материала и не желаете, чтобы ссылка на него находилась в нашем каталоге, свяжитесь с нами, и мы незамедлительно удалим ее. Файлы для обмена на трекере предоставлены пользователями сайта, и администрация не несет ответственности за их содержание. Просьба не заливать файлы, защищенные авторскими правами, а также файлы нелегального содержания!