Ивановский Торрент трекер
Яндекс.Погода
 

[Цитировать]
HUNTER

-Мой маленький пони: Девочки из Эквестрии - Радужный рок / My Little Pony: Equestria Girls - Rainbow Rocks- Английское название: My Little Pony: Equestria Girls - Rainbow Rocks
Русские названия: Мой маленький пони: Девочки из Эквестрии - Радужный рок
Год выпуска: 2014.
Страна: США, Канада
Жанр: Приключения, семейный, фэнтези
Продолжительность: 1:13:20
Перевод: Любительский (Одноголосный) Трина Дубовицкая
Перевод: Любительский (Одноголосный) ALEKS KV
Перевод: Профессиональный (Полное Дублирование) ПлюсПлюс
Субтитры: Русские Anon2Anon
Субтитры: Русские TheDoctor Team
Субтитры: Английские-Описание: В школе Кантерлот Хай состоится музыкальное представление, в котором решают поучаствовать Рэйнбоу Дэш, Эпплджек, Пинки Пай, Рэрити и Флаттершай со своей новой группой - "The Rainbooms". Но когда на сцене появляется новая группа девочек с броским названием "The Dazzlings", всё очень быстро превращается из дружеского состязания в настоящую Битву Групп. В то время как между противниками нарастает напряжение, исправившаяся Сансет Шиммер узнаёт, что девочки из группы "The Dazzlings" вовсе не так просты, как могут показаться, и преследуют цели куда более зловещие, чем завоевание титула Лучшей Группы Кантерлот Хай. "The Rainbooms" обращаются за помощью к Принцессе Твайлайт, чтобы та вернулась в их мир и помогла сотворить музыкальное контр-заклинание, способное помочь им в битве, которая определит дальнейшую судьбу всей школы.-Релиз от: -Над релизом работали:
vitaly3 .......Изначальные сборки раздач Rainbow Rocks
ALEKS KV .......Энкод, итоговый муксинг, озвучка
yp1 .......Предоставил образ BD диска
Trina_D .......Озвучка-Сравнение качества с рипом из раздачи vitaly3:

1) Та раздача 2) Эта


-Сэмпл
Качество: BDRip 1080p
Формат видео: MKV
Видео кодек: x264
Аудио кодек: AC3, DTS
Видео: x264 8bit 1920х1080p 23.976fps 5939Kbps 16:9 High Profile 4.1
Аудио:

  • русская: DTS 48000Hz |5.1| 1509Kbps 24bit [Трина Дубовицкая]
  • русская: DTS 48000Hz |5.1| 1509Kbps 24bit [ALEKS KV]
  • украинская: Dolby AC3 48000Hz |Stereo| 192Kbps 16bit [ПлюсПлюс]
  • английская: DTS 48000Hz |5.1| 1509Kbps 24bit [Оригинал]
  • сomments: Dolby AC3 48000Hz |TrueStereo| 192Kbps 16bit [Оригинал]
    Субтитры:
  • русские: Anon2Anon
  • русские: TheDoctor Team
  • английские: Оригинал
    -

    Подробные технические данные

    GeneralUnique ID : 214171868864219703368736316032488096822 (0xA1200065858BF8448A82524D7B00C436)Complete name : X:\XXXXXXXXXXXXXXXX\[M-KV2501] My Little Pony Equestria Girls - Rainbow Rocks [BDRip].mkvFormat : MatroskaFormat version : Version 2File size : 5.67 GiBDuration : 1h 13mnOverall bit rate : 11.1 MbpsEncoded date : UTC 2014-11-17 11:04:00Writing application : mkvmerge v5.5.0 ('Healer') built on Apr 6 2012 21:43:24Writing library : libebml v1.2.3 + libmatroska v1.3.0
    VideoID : 1Format : AVCFormat/Info : Advanced Video CodecFormat profile : High@L4.1Format settings, CABAC : YesFormat settings, ReFrames : 4 framesCodec ID : V_MPEG4/ISO/AVCDuration : 1h 13mnBit rate : 5 939 KbpsWidth : 1 920 pixelsHeight : 1 080 pixelsDisplay aspect ratio : 16:9Frame rate mode : ConstantFrame rate : 23.976 fpsColor space : YUVChroma subsampling : 4:2:0Bit depth : 8 bitsScan type : ProgressiveBits/(Pixel*Frame) : 0.119Stream size : 3.04 GiB (54%)Title : OriginalWriting library : x264 core 133 r2334 a3ac64bEncoding settings : cabac=1 / ref=4 / deblock=1:-2:-1 / analyse=0x3:0x113 / me=tesa / subme=11 / psy=1 / psy_rd=1.00:0.00 / mixed_ref=1 / me_range=32 / chroma_me=1 / trellis=2 / 8x8dct=1 / cqm=0 /deadzone=21,11 / fast_pskip=0 / chroma_qp_offset=-2 / threads=12 / lookahead_threads=3 / sliced_threads=0 / nr=0 / decimate=1 / interlaced=0 / bluray_compat=0 / constrained_intra=0 / bframes=16 / b_pyramid=2 /b_adapt=2 / b_bias=0 / direct=3 / weightb=1 / open_gop=0 / weightp=2 / keyint=240 / keyint_min=23 / scenecut=40 / intra_refresh=0 / rc_lookahead=60 / rc=crf / mbtree=1 / crf=14.5 / qcomp=0.60 / qpmin=0 / qpmax=69 /qpstep=4 / vbv_maxrate=62500 / vbv_bufsize=78125 / crf_max=0.0 / nal_hrd=none / ip_ratio=1.40 / aq=1:1.00Language : EnglishDefault : YesForced : No
    Audio #1ID : 2Format : DTSFormat/Info : Digital Theater SystemsMode : 16Format settings, Endianness : BigCodec ID : A_DTSDuration : 1h 13mnBit rate mode : ConstantBit rate : 1 510 KbpsChannel(s) : 6 channelsChannel positions : Front: L C R, Side: L R, LFESampling rate : 48.0 KHzBit depth : 24 bitsCompression mode : LossyStream size : 792 MiB (14%)Title : Трина ДубовицкаяLanguage : RussianDefault : YesForced : No
    Audio #2ID : 3Format : DTSFormat/Info : Digital Theater SystemsMode : 16Format settings, Endianness : BigCodec ID : A_DTSDuration : 1h 13mnBit rate mode : ConstantBit rate : 1 509 KbpsChannel(s) : 6 channelsChannel positions : Front: L C R, Side: L R, LFESampling rate : 48.0 KHzBit depth : 24 bitsCompression mode : LossyStream size : 792 MiB (14%)Title : ALEKS KVLanguage : RussianDefault : NoForced : No
    Audio #3ID : 4Format : AC-3Format/Info : Audio Coding 3Mode extension : CM (complete main)Format settings, Endianness : BigCodec ID : A_AC3Duration : 1h 13mnBit rate mode : ConstantBit rate : 192 KbpsChannel(s) : 2 channelsChannel positions : Front: L RSampling rate : 48.0 KHzBit depth : 16 bitsCompression mode : LossyStream size : 101 MiB (2%)Title : ПлюсПлюсLanguage : UkrainianDefault : NoForced : No
    Audio #4ID : 5Format : DTSFormat/Info : Digital Theater SystemsMode : 16Format settings, Endianness : BigCodec ID : A_DTSDuration : 1h 13mnBit rate mode : ConstantBit rate : 1 509 KbpsChannel(s) : 6 channelsChannel positions : Front: L C R, Side: L R, LFESampling rate : 48.0 KHzBit depth : 24 bitsCompression mode : LossyStream size : 792 MiB (14%)Title : OriginalLanguage : EnglishDefault : NoForced : No
    Audio #5ID : 6Format : AC-3Format/Info : Audio Coding 3Mode extension : CM (complete main)Format settings, Endianness : BigCodec ID : A_AC3Duration : 1h 13mnBit rate mode : ConstantBit rate : 192 KbpsChannel(s) : 2 channelsChannel positions : Front: L RSampling rate : 48.0 KHzBit depth : 16 bitsCompression mode : LossyStream size : 101 MiB (2%)Title : CommentsLanguage : EnglishDefault : NoForced : No
    Text #1ID : 7Format : ASSCodec ID : S_TEXT/ASSCodec ID/Info : Advanced Sub Station AlphaCompression mode : LosslessTitle : Anon2AnonLanguage : RussianDefault : NoForced : No
    Text #2ID : 8Format : ASSCodec ID : S_TEXT/ASSCodec ID/Info : Advanced Sub Station AlphaCompression mode : LosslessTitle : TheDoctor TeamLanguage : RussianDefault : NoForced : No
    Text #3ID : 9Format : ASSCodec ID : S_TEXT/ASSCodec ID/Info : Advanced Sub Station AlphaCompression mode : LosslessTitle : OriginalLanguage : EnglishDefault : NoForced : No

    Скриншоты



  • Показать сообщения:    

    Текущее время: 16-Дек 07:17

    Часовой пояс: UTC ± 0


    Вы не можете начинать темы
    Вы не можете отвечать на сообщения
    Вы не можете редактировать свои сообщения
    Вы не можете удалять свои сообщения
    Вы не можете голосовать в опросах
    Вы не можете прикреплять файлы к сообщениям
    Вы не можете скачивать файлы

    !ВНИМАНИЕ!
    Сайт не предоставляет электронные версии произведений, а занимается лишь коллекционированием и каталогизацией ссылок, присылаемых и публикуемых на форуме нашими читателями. Если вы являетесь правообладателем какого-либо представленного материала и не желаете, чтобы ссылка на него находилась в нашем каталоге, свяжитесь с нами, и мы незамедлительно удалим ее. Файлы для обмена на трекере предоставлены пользователями сайта, и администрация не несет ответственности за их содержание. Просьба не заливать файлы, защищенные авторскими правами, а также файлы нелегального содержания!