Ивановский Торрент трекер
Яндекс.Погода
 

[Цитировать]
HUNTER

Мой маленький пони: Девочки из Эквестрии - Радужный рок / My Little Pony: Equestria Girls - Rainbow Rocks Страна: США, Канада
Жанр: Приключения, комедия, семейный, фэнтези
Продолжительность: 01:07:59
Год выпуска: 2014
Перевод: Одноголосый закадровый (Трина Дубовицкая) (Сэмпл)
Русские субтитры: есть
Режиссёр: Джэйсон Тиссен / Jayson Thiessen, Иши Руделл / Ishi Rudell
Роли озвучивали: Тара Стронг, Эшли Болл, Андреа Либман, Табита Сен-Жермен, Кэти Уэслак, Кэтлин Барр и другие.
Описание: В школе Кантерлот Хай состоится музыкальное представление, в котором решают поучаствовать Рэйнбоу Дэш, Эпплджек, Пинки Пай, Рэрити и Флаттершай со своей новой группой - "The Rainbooms". Но когда на сцене появляется новая группа девочек с броским названием "The Dazzlings", всё очень быстро превращается из дружеского состязания в настоящую Битву Групп. В то время как между противниками нарастает напряжение, исправившаяся Сансет Шиммер узнаёт, что девочки из группы "The Dazzlings" вовсе не так просты, как могут показаться, и преследуют цели куда более зловещие, чем завоевание титула Лучшей Группы Кантерлот Хай. "The Rainbooms" обращаются за помощью к Принцессе Твайлайт, чтобы та вернулась в их мир и помогла сотворить музыкальное контр-заклинание, способное помочь им в битве, которая определит дальнейшую судьбу всей школы.
Доп. информация: В раздаче представлена оперативная любительская озвучка Трины Дубовицкой, за что ей огромное спасибо. Для тех кто не любит озвучку, также присутствует оригинальная аудиодорожка и субтитры. В конце октября ожидается качество видео еще лучше (BDRip).
Предыдущие и альтернативные раздачи
Рейтинг:
Качество: HDTV 1080p [TPB speedingcheetah]
Формат: MKV
Видео: MPEG2, 1920x1080 (16:9), 29.970 fps, ~6909 kbps
Аудио 1 Rus: AC3 48 kHz, 2 ch, 192 kbps (Трина Дубовицкая)
Аудио 2 Eng: AC3 48 kHz, 6 ch, 384 kbps (Оригинальный звук)
Субтитры: русские (TheDoctor Team) (цветные) и английские (отключаемые)

Скриншоты

Подробные технические данные

ОбщееУникальный идентификатор : 254401144796788468964042980205036806709 (0xBF63E0D5FA7EF9988A0525A512A7A235)Полное имя : C:\Video\mlp.eg.rainbow.rocks.2014.hdtv.1080p.mkvФормат : MatroskaВерсия формата : Version 4 / Version 2Размер файла : 3,63 ГбайтПродолжительность : 1 ч. 7 м.Режим общего битрейта : ПеременныйОбщий поток : 7637 Кбит/секДата кодирования : UTC 2014-10-20 06:20:11Программа кодирования : mkvmerge v7.2.0 ('On Every Street') 32bit built on Sep 13 2014 15:42:11Библиотека кодирования : libebml v1.3.0 + libmatroska v1.4.1DURATION : 01:07:28.720000000NUMBER_OF_FRAMES : 1354NUMBER_OF_BYTES : 47097_STATISTICS_WRITING_APP : mkvmerge v7.2.0 ('On Every Street') 32bit built on Sep 13 2014 15:42:11_STATISTICS_WRITING_DATE_UTC : 2014-10-20 06:20:11_STATISTICS_TAGS : BPS DURATION NUMBER_OF_FRAMES NUMBER_OF_BYTES
ВидеоИдентификатор : 1Формат : MPEG VideoВерсия формата : Version 2Профиль формата : Main@HighПараметр BVOP формата : НетПараметр матрицы формата : ВыборочнаяИдентификатор кодека : V_MPEG2Идентификатор кодека/Информация : MPEG 1 or 2 VideoПродолжительность : 1 ч. 7 м.Вид битрейта : ПеременныйБитрейт : 6909 Кбит/секМаксимальный битрейт : 20,0 Мбит/секШирина : 1920 пикселейВысота : 1080 пикселейСоотношение сторон : 16:9Режим частоты кадров : ПостоянныйЧастота кадров : 29,970 кадров/секЦветовое пространство : YUVСубдискретизация насыщенности : 4:2:0Битовая глубина : 8 битТип развёртки : ПрогрессивнаяМетод сжатия : С потерямиБит/(Пиксели*Кадры) : 0.111Временной код первого кадра : 00:00:00:00Оригинал временного кода : Group of pictures headerРазмер потока : 3,28 Гбайт (90%)Язык : EnglishDefault : ДаForced : Нет
Аудио #1Идентификатор : 2Формат : AC-3Формат/Информация : Audio Coding 3Расширение режима : CM (complete main)Параметр Endianness формата : BigИдентификатор кодека : A_AC3Продолжительность : 1 ч. 7 м.Вид битрейта : ПостоянныйБитрейт : 192 Кбит/секКаналы : 2 каналаРасположение каналов : Front: L RЧастота : 48,0 КГцБитовая глубина : 16 битМетод сжатия : С потерямиЗадержка видео : -67 мс.Размер потока : 93,4 Мбайт (3%)Заголовок : Трина ДубовицкаяЯзык : RussianDefault : ДаForced : Нет
Аудио #2Идентификатор : 3Формат : AC-3Формат/Информация : Audio Coding 3Расширение режима : CM (complete main)Параметр Endianness формата : BigИдентификатор кодека : A_AC3Продолжительность : 1 ч. 7 м.Вид битрейта : ПостоянныйБитрейт : 384 Кбит/секКаналы : 6 каналовРасположение каналов : Front: L C R, Side: L R, LFEЧастота : 48,0 КГцБитовая глубина : 16 битМетод сжатия : С потерямиЗадержка видео : 23 мс.Размер потока : 187 Мбайт (5%)Заголовок : OriginalЯзык : EnglishDefault : НетForced : Нет
Текст #1Идентификатор : 4Формат : ASSИдентификатор кодека : S_TEXT/ASSИдентификатор кодека/Информация : Advanced Sub Station AlphaМетод сжатия : Без потерьЗаголовок : TheDoctor TeamЯзык : RussianDefault : НетForced : Нет
Текст #2Идентификатор : 5Формат : UTF-8Идентификатор кодека : S_TEXT/UTF8Идентификатор кодека/Информация : UTF-8 Plain TextЗаголовок : OriginalЯзык : EnglishDefault : НетForced : Нет


Показать сообщения:    

Текущее время: 11-Дек 12:57

Часовой пояс: UTC ± 0


Вы не можете начинать темы
Вы не можете отвечать на сообщения
Вы не можете редактировать свои сообщения
Вы не можете удалять свои сообщения
Вы не можете голосовать в опросах
Вы не можете прикреплять файлы к сообщениям
Вы не можете скачивать файлы

!ВНИМАНИЕ!
Сайт не предоставляет электронные версии произведений, а занимается лишь коллекционированием и каталогизацией ссылок, присылаемых и публикуемых на форуме нашими читателями. Если вы являетесь правообладателем какого-либо представленного материала и не желаете, чтобы ссылка на него находилась в нашем каталоге, свяжитесь с нами, и мы незамедлительно удалим ее. Файлы для обмена на трекере предоставлены пользователями сайта, и администрация не несет ответственности за их содержание. Просьба не заливать файлы, защищенные авторскими правами, а также файлы нелегального содержания!