Ивановский Торрент трекер
Яндекс.Погода
 

[Цитировать]
HUNTER

Мозг Донована / Donovan's Brain
-Страна: США
Жанр: ужасы, фантастика
Год выпуска: 1953
Продолжительность: 01:23:35-Перевод: Одноголосый закадровый - "Трамвай-фильм"-Cубтитры: английские
Оригинальная аудиодорожка: английский-Режиссер: Феликс Э. Файст / Felix E. Feist-В ролях: Лью Эйрз, Джин Эванс, Нэнси Рейган, Стив Броди, Том Пауэрс, Лиза Ховард, Джеймс Андерсон, Виктор Сазерленд, Майкл Колган, Питер Адамс-Описание:
Доктор Кори занимается нейрохирургией. Ему удается вынуть мозг обезьяны из черепной коробки и поддерживать его в живом состоянии в лаборатории. Вскоре в авиакатастрофе серьезные травмы получает известный финансист, миллионер Уилльям Донован. Доктор Кори решает спасти, ну, если и не тело миллионера, то хотя бы его мозг. Он также помещает его в стеклянный сосуд. Вскоре доктор решает перейти на новый уровень своих экспериментов. Он начинает заниматься самогипнозом, пытаясь связаться с волнами, излучаемыми автономным мозгом. Постепенно воздействие мозга Донована на доктора Кори оказывается доминирующим. Вскоре Донован заставляет доктора убивать своих врагов…-Сэмпл: Скачать-Тип релиза: BDRemux 1080p
Контейнер: MKV
Видео: MPEG-4 AVC Video; 24884 kbps; 1080p; 23.976 fps; 16:9; High Profile 4.1
Аудио 1: Russian; AC3; 48.0 KHz; 2ch; 192 Kbps
Аудио 2: English; FLAC; 48.0 KHz; 2ch; 253 Kbps
Аудио 3: English; AC3; 48.0 KHz; 2ch; 256 Kbps Commentary by Film Historian Richard Harland Smith

MediaInfo

Format : Matroska
Format version : Version 4 / Version 2
File size : 15.0 GiB
Duration : 1h 23mn
Overall bit rate mode : Variable
Overall bit rate : 25.7 Mbps
Encoded date : UTC 2016-04-01 08:26:28
Writing application : mkvmerge v8.3.0 ('Over the Horizon') 64bit
Writing library : libebml v1.3.1 + libmatroska v1.4.2
Attachements : poster.jpg
DURATION : 01:21:49.301000000
NUMBER_OF_FRAMES : 1636
NUMBER_OF_BYTES : 45507
_STATISTICS_WRITING_APP : mkvmerge v8.3.0 ('Over the Horizon') 64bit
_STATISTICS_WRITING_DATE_UT : 2016-04-01 08:26:28
_STATISTICS_TAGS : BPS DURATION NUMBER_OF_FRAMES NUMBER_OF_BYTES
Video
ID : 1
Format : AVC
Format/Info : Advanced Video Codec
Format profile : High@L4.1
Format settings, CABAC : Yes
Format settings, ReFrames : 4 frames
Codec ID : V_MPEG4/ISO/AVC
Duration : 1h 23mn
Bit rate mode : Variable
Maximum bit rate : 35.0 Mbps
Width : 1 920 pixels
Height : 1 080 pixels
Display aspect ratio : 16:9
Frame rate mode : Constant
Frame rate : 23.976 fps
Standard : NTSC
Color space : YUV
Chroma subsampling : 4:2:0
Bit depth : 8 bits
Scan type : Progressive
Default : Yes
Forced : No
Color range : Limited
Color primaries : BT.709
Transfer characteristics : BT.709
Matrix coefficients : BT.709
Audio #1
ID : 2
Format : AC-3
Format/Info : Audio Coding 3
Mode extension : CM (complete main)
Format settings, Endianness : Big
Codec ID : A_AC3
Duration : 1h 23mn
Bit rate mode : Constant
Bit rate : 192 Kbps
Channel(s) : 2 channels
Channel positions : Front: L R
Sampling rate : 48.0 KHz
Compression mode : Lossy
Stream size : 115 MiB (1%)
Title : VO Трамвай-фильм
Language : Russian
Default : Yes
Forced : No
Audio #2
ID : 3
Format : FLAC
Format/Info : Free Lossless Audio Codec
Codec ID : A_FLAC
Duration : 1h 23mn
Bit rate mode : Variable
Channel(s) : 2 channels
Sampling rate : 48.0 KHz
Bit depth : 16 bits
Writing library : libFLAC 1.3.1 (UTC 2014-11-25)
Language : English
Default : No
Forced : No
Audio #3
ID : 4
Format : AC-3
Format/Info : Audio Coding 3
Mode extension : CM (complete main)
Format settings, Endianness : Big
Codec ID : A_AC3
Duration : 1h 23mn
Bit rate mode : Constant
Bit rate : 256 Kbps
Channel(s) : 2 channels
Channel positions : Front: L R
Sampling rate : 48.0 KHz
Compression mode : Lossy
Stream size : 153 MiB (1%)
Title : Commentary by Film Historian Richard Harland Smith
Language : English
Default : No
Forced : No
Text
ID : 5
Format : UTF-8
Codec ID : S_TEXT/UTF8
Codec ID/Info : UTF-8 Plain Text
Language : English
Default : No
Forced : No

Скриншоты

Показать сообщения:    

Текущее время: 26-Сен 02:58

Часовой пояс: UTC - 1


Вы не можете начинать темы
Вы не можете отвечать на сообщения
Вы не можете редактировать свои сообщения
Вы не можете удалять свои сообщения
Вы не можете голосовать в опросах
Вы не можете прикреплять файлы к сообщениям
Вы не можете скачивать файлы

!ВНИМАНИЕ!
Сайт не предоставляет электронные версии произведений, а занимается лишь коллекционированием и каталогизацией ссылок, присылаемых и публикуемых на форуме нашими читателями. Если вы являетесь правообладателем какого-либо представленного материала и не желаете, чтобы ссылка на него находилась в нашем каталоге, свяжитесь с нами, и мы незамедлительно удалим ее. Файлы для обмена на трекере предоставлены пользователями сайта, и администрация не несет ответственности за их содержание. Просьба не заливать файлы, защищенные авторскими правами, а также файлы нелегального содержания!