Важное объявление!
У Нас Все раздачи мультитрекерные, при нуле пиров в релизах, можете смело вставать на закачку!
Статистика раздачи
Размер:     |    Зарегистрирован:     |    Скачан:     |   
Нет
 
     
 
 
Автор Сообщение

HUNTER

Стаж:
5 лет
Сообщений:
68391

Репутация: 101

[+] [-]
Вне форума [Профиль] [ЛС]

Мозги набекрень / Обдолбанные / Puff, Puff, Pass / Living High
Страна: США
Студия: Facilitator Films, Rainforest Films
Жанр: комедия
Год выпуска: 2006
Продолжительность: 01:34:34
Перевод: Профессиональный (многоголосый закадровый)
Cубтитры: нет
Оригинальная аудиодорожка: английский
Режиссер: Мекхай Файфер / Mekhi Phifer
В ролях: Ронни Уорнер, Дэнни Мастерсон, Мекхай Файфер, Эшли Скотт, Терри Крюс, Джейсон Стюарт, Лаван Дэвис, Констанс Мари, Линдсэй Холлистер, Кристен Миллер
Описание: У Ларри и Рико есть на двоих лишь одна страсть — «травкa». Ради нее эти молодые люди с одной извилиной на двоих готовы на все. Например, прокурить все деньги и быть выброшенными на улицу за неуплату за квартиру. Или сделать попытку «кинуть» крутого мафиози по кличке Большой Папочка. Любой другой на их месте давно бы свернул шею в попытках форсировать суровую реальность на утлой байдарке из конопляных глюков. Но только не эта парочка, чей дефицит по части мозгов компенсируется просто невероятным, необъяснимым, нечеловеческим везением!..

Sample
Тип релиза: WEB-DL 1080p
Контейнер: MKV
Видео: MPEG4 AVC Video, H264, 16:9, 1920x1080, 23.976 fps, 4963 kbps
Аудио: Russian (AC3, 6 ch, 384 kbps, 16 bits, 48.0 KHz) - MVO
Аудио 2: English (AC3, 2 ch, 384 kbps, 16 bits, 48.0 KHz) - оригинал

MediaInfo

General
Unique ID : 242367909317189380669742900294092292255 (0xB6565C85729D60189AA5752AEFBB809F)
Complete name : E:\1\Puff Puff Pass 2006 WEB-DL 1080p.mkv
Format : Matroska
Format version : Version 4 / Version 2
File size : 3.86 GiB
Duration : 1h 34mn
Overall bit rate : 5 847 Kbps
Encoded date : UTC 2015-01-10 02:30:25
Writing application : mkvmerge v6.1.0 ('Old Devil') built on Mar 2 2013 14:32:37
Writing library : libebml v1.3.0 + libmatroska v1.4.0
Video
ID : 1
Format : AVC
Format/Info : Advanced Video Codec
Format profile : High@L4.0
Format settings, CABAC : Yes
Format settings, ReFrames : 4 frames
Codec ID : V_MPEG4/ISO/AVC
Duration : 1h 34mn
Bit rate : 4 963 Kbps
Width : 1 920 pixels
Height : 1 080 pixels
Display aspect ratio : 16:9
Frame rate mode : Constant
Frame rate : 23.976 fps
Color space : YUV
Chroma subsampling : 4:2:0
Bit depth : 8 bits
Scan type : Progressive
Bits/(Pixel*Frame) : 0.100
Stream size : 3.28 GiB (85%)
Language : English
Default : Yes
Forced : Yes
Color primaries : BT.709
Transfer characteristics : BT.709
Matrix coefficients : BT.709
Audio #1
ID : 2
Format : AC-3
Format/Info : Audio Coding 3
Mode extension : CM (complete main)
Format settings, Endianness : Big
Codec ID : A_AC3
Duration : 1h 34mn
Bit rate mode : Constant
Bit rate : 384 Kbps
Channel count : 6 channels
Channel positions : Front: L C R, Side: L R, LFE
Sampling rate : 48.0 KHz
Bit depth : 16 bits
Compression mode : Lossy
Stream size : 260 MiB (7%)
Language : Russian
Default : Yes
Forced : Yes
Audio #2
ID : 3
Format : AC-3
Format/Info : Audio Coding 3
Mode extension : CM (complete main)
Format settings, Endianness : Big
Codec ID : A_AC3
Duration : 1h 34mn
Bit rate mode : Constant
Bit rate : 384 Kbps
Channel count : 2 channels
Channel positions : Front: L R
Sampling rate : 48.0 KHz
Bit depth : 16 bits
Compression mode : Lossy
Stream size : 260 MiB (7%)
Language : English
Default : No
Forced : No
Menu
00:00:00.000 : en:Start
00:07:14.000 : en:An Easier, Softer Way
00:14:08.000 : en:The Look of Ambition
00:21:42.000 : en:Keys to Heaven's House
00:31:18.000 : en:Group Relations
00:40:36.000 : en:Night of Holy Temptations
00:50:29.000 : en:From Addicts to Dealers
01:01:17.000 : en:The Poor and Homeless
01:08:59.000 : en:Earl of the Van
01:14:39.000 : en:The Cool Crush Ice Killah
01:20:33.000 : en:Cutting a New Deal
01:26:01.000 : en:Ni-Car-Agua!

Скриншоты


_________________

MAXON74

Стаж:
1 год 2 месяца
Сообщений:
1
Вне форума [Профиль] [ЛС]

Народ помогите скачать пожалуйста!
Показать сообщения:    

Текущее время: Сегодня 21:38

Часовой пояс: GMT



Вы не можете начинать темы
Вы не можете отвечать на сообщения
Вы не можете редактировать свои сообщения
Вы не можете удалять свои сообщения
Вы не можете голосовать в опросах
Вы не можете прикреплять файлы к сообщениям
Вы не можете скачивать файлы