Важное объявление!
У Нас Все раздачи мультитрекерные, при нуле пиров в релизах, можете смело вставать на закачку!
 
Автор Сообщение

HUNTER

Стаж:
4 года 8 месяцев
Сообщений:
62068

Репутация: 101

[+] [-]
Вне форума [Профиль] [ЛС]

Могилы не молчат
Год выпуска: 1963
Страна: СССР
Жанр: документальный
Продолжительность: 00:24:44
Перевод: Не требуется
Русские субтитры: нет
Режиссер: П. Шампур, Владимир Короткевич
Описание: Фильм о прошедшей войне...
Это было выселение из Вселенной... Русские должны умереть, чтобы жил фашизм - такова диагностика прошедшей войны.
Разве вы ничего не слышите? А я слышу - вот вздрагивает пистолет, еще, еще...В Минске, Могилеве, Витебске - я вижу, как они раскачиваются - повсюду виселицы... Виселиц не хватало, вешали на балконах и мостах.
Вот парень и девушка, у них хорошие мужественные лица. Это не значит, что им легко было умирать...Деревни сжигались дотла.
В Беларуссии каждый четвертый был уничтожен. Два миллиона двести тысяч погибших - население целой страны! Двести девять испепеленных городов...
В фильме использованы кадры Госкиноархива.
Первые 10 минут фильма не сохранились.
Доп. информация: Релиз
Dvdscr предоставил некто Андрей
Автор релиза: pmv
Сэмпл: http://yadi.sk/d/RHexxYe7CUbRy
качество: SATRip
формат: AVI
Видео: XVID 720х552 4:3 1993 Kbps 25.000 fps
Аудио: MP3 96.0 Kbps 48.0 KHz 1 channel

MediaInfo

General
Complete name : C:\Users\Саша\Downloads\mogily.ne.molchat.1963.avi
Format : AVI
Format/Info : Audio Video Interleave
File size : 371 MiB
Duration : 24mn 44s
Overall bit rate : 2 099 Kbps
Writing application : Lavf53.19.0
Writing library : VirtualDub build 35475/release
Video
ID : 0
Format : MPEG-4 Visual
Format profile : Advanced Simple@L5
Format settings, BVOP : Yes
Format settings, QPel : No
Format settings, GMC : No warppoints
Format settings, Matrix : Default (H.263)
Codec ID : XVID
Codec ID/Hint : XviD
Duration : 24mn 44s
Bit rate : 1 993 Kbps
Width : 720 pixels
Height : 552 pixels
Display aspect ratio : 4:3
Frame rate : 25.000 fps
Resolution : 8 bits
Colorimetry : 4:2:0
Scan type : Progressive
Bits/(Pixel*Frame) : 0.201
Stream size : 353 MiB (95%)
Writing library : XviD 1.2.1 (UTC 2008-12-04)
Audio
ID : 1
Format : MPEG Audio
Format version : Version 1
Format profile : Layer 3
Codec ID : 55
Codec ID/Hint : MP3
Duration : 24mn 44s
Bit rate mode : Constant
Bit rate : 96.0 Kbps
Channel(s) : 1 channel
Sampling rate : 48.0 KHz
Stream size : 17.0 MiB (5%)
Alignment : Split accross interleaves
Interleave, duration : 40 ms (1.00 video frame)
Interleave, preload duration : 500 ms

Скриншоты


_________________
Показать сообщения:    

Текущее время: Сегодня 10:11

Часовой пояс: GMT



Вы не можете начинать темы
Вы не можете отвечать на сообщения
Вы не можете редактировать свои сообщения
Вы не можете удалять свои сообщения
Вы не можете голосовать в опросах
Вы не можете прикреплять файлы к сообщениям
Вы не можете скачивать файлы
Наши партнеры: интернет магазин Ивановского трикотажа textilla.ru