Ивановский Торрент трекер
Яндекс.Погода
 

[Цитировать]
HUNTER

Могамбо / Mogambo
Страна: США
Жанр: драма, мелодрама, приключения
Год выпуска: 1953
Продолжительность: 01:56:09
Перевод 1: Профессиональный (двухголосый закадровый) Film Prestige
Перевод 2: Профессиональный (двухголосый закадровый)
Cубтитры: русские, английские
Оригинальная аудиодорожка: английский
Режиссер: Джон Форд / John Ford
В ролях: Кларк Гейбл, Ава Гарднер, Грэйс Келли, Дональд Синден, Филип Стейнтон, Эрик Польман, Лоуренс Нэйсмит, Денис О’Ди, Самбуру, Вагения
Описание: Кения, центральная Африка. Профессиональный охотник и авантюрист Виктор Марсуэлл помогает группам туристов и антропологов преодолевать бескрайние просторы саванны и непроходимые заросли черного континента. Во время одной из экспедиций он встречает Келли, танцовщицу из варьете, которая намного младше его.
Между ними завязывается бурный роман, который будет прерван прибытием в поселок семейной пары Нордли. Антрополог Доналд и его чопорная, и на вид неприступная, жена Линда, прибыли для изучения жизни горилл и шимпанзе. Любвеобильный Виктор решает приударить за неприступной женой ученого и не безуспешно. Этот авантюрный поступок причинит боль Келли, но приведет к неожиданной развязке в сложившемся любовном треугольнике.
Доп. информация:


За дорожку Film Prestige спасибо noartist
За вторую двухголоску спасибо vladimiryakushin
Сэмпл: http://sendfile.su/1036255
Тип релиза: WEB-DL 720p
Контейнер: MKV
Видео: AVC, 956x720, L3.1, 23.976fps, 4027kbps
Аудио 1: Russian: AC3, 48000Hz, 2ch, 192kbps - Film Prestige
Аудио 2: Russian: AC3, 48000Hz, 2ch, 448kbps - DVO
Аудио 3: English: AC3, 48000Hz, 2ch, 448kbps - DVD
Аудио 4: English: AAC, 48000Hz, 2ch, 133kbps - WEB-DL

MediaInfo

Общее
Уникальный идентификатор : 193450633268722756774195151684344581302 (0x91893C9AD0A9344EB23C51BD01858CB6)
Полное имя : T:\Mogambo (WEB-DL 720p).mkv
Формат : Matroska
Версия формата : Version 4 / Version 2
Размер файла : 4,26 Гбайт
Продолжительность : 1 ч. 56 м.
Общий поток : 5248 Кбит/сек
Дата кодирования : UTC 2014-10-17 09:25:09
Программа кодирования : mkvmerge v6.9.1 ('Blue Panther') 64bit built on Apr 18 2014 18:23:38
Библиотека кодирования : libebml v1.3.0 + libmatroska v1.4.1
Видео
Идентификатор : 1
Формат : AVC
Формат/Информация : Advanced Video Codec
Профиль формата : Main@L3.1
Параметр CABAC формата : Нет
Параметр ReFrames формата : 2 кадра
Идентификатор кодека : V_MPEG4/ISO/AVC
Продолжительность : 1 ч. 56 м.
Ширина : 956 пикселей
Высота : 720 пикселей
Соотношение сторон : 4:3
Режим частоты кадров : Постоянный
Частота кадров : 23,976 кадра/сек
Цветовое пространство : YUV
Субдискретизация насыщенности : 4:2:0
Битовая глубина : 8 бит
Тип развёртки : Прогрессивная
Язык : English
Default : Да
Forced : Нет
Основные цвета : BT.709
Характеристики трансфера : BT.709
Коэффициенты матрицы : BT.709
Аудио #1
Идентификатор : 2
Формат : AC-3
Формат/Информация : Audio Coding 3
Расширение режима : CM (complete main)
Параметр Endianness формата : Big
Идентификатор кодека : A_AC3
Продолжительность : 1 ч. 56 м.
Вид битрейта : Постоянный
Битрейт : 192 Кбит/сек
Каналы : 2 канала
Расположение каналов : Front: L R
Частота : 48,0 КГц
Битовая глубина : 16 бит
Метод сжатия : С потерями
Размер потока : 160 Мбайт (4%)
Заголовок : Film Prestige
Язык : Russian
Default : Да
Forced : Нет
Аудио #2
Идентификатор : 3
Формат : AC-3
Формат/Информация : Audio Coding 3
Расширение режима : CM (complete main)
Параметр Endianness формата : Big
Идентификатор кодека : A_AC3
Продолжительность : 1 ч. 56 м.
Вид битрейта : Постоянный
Битрейт : 448 Кбит/сек
Каналы : 2 канала
Расположение каналов : Front: L R
Частота : 48,0 КГц
Битовая глубина : 16 бит
Метод сжатия : С потерями
Размер потока : 372 Мбайт (9%)
Заголовок : DVO
Язык : Russian
Default : Нет
Forced : Нет
Аудио #3
Идентификатор : 4
Формат : AC-3
Формат/Информация : Audio Coding 3
Расширение режима : CM (complete main)
Параметр Endianness формата : Big
Идентификатор кодека : A_AC3
Продолжительность : 1 ч. 56 м.
Вид битрейта : Постоянный
Битрейт : 448 Кбит/сек
Каналы : 2 канала
Расположение каналов : Front: L R
Частота : 48,0 КГц
Битовая глубина : 16 бит
Метод сжатия : С потерями
Размер потока : 372 Мбайт (9%)
Заголовок : DVD
Язык : English
Default : Нет
Forced : Нет
Аудио #4
Идентификатор : 5
Формат : AAC
Формат/Информация : Advanced Audio Codec
Профиль формата : LC
Идентификатор кодека : A_AAC
Продолжительность : 1 ч. 56 м.
Каналы : 2 канала
Расположение каналов : Front: L R
Частота : 48,0 КГц
Метод сжатия : С потерями
Заголовок : WEB-DL
Язык : English
Default : Нет
Forced : Нет
Текст #1
Идентификатор : 6
Формат : UTF-8
Идентификатор кодека : S_TEXT/UTF8
Идентификатор кодека/Информация : UTF-8 Plain Text
Язык : Russian
Default : Нет
Forced : Нет
Текст #2
Идентификатор : 7
Формат : UTF-8
Идентификатор кодека : S_TEXT/UTF8
Идентификатор кодека/Информация : UTF-8 Plain Text
Язык : English
Default : Нет
Forced : Нет
Меню
00:00:00.000 : en:Credits
00:01:33.000 : en:Black Leopard
00:04:59.000 : en:Honey Bear
00:09:11.000 : en:Everything Snarls
00:12:20.000 : en:Animal Attraction
00:19:19.000 : en:Boat Day
00:23:55.000 : en:Bronx Zoo Next
00:26:09.000 : en:Turning Into A Hospital
00:31:01.000 : en:Fighting Over A female
00:34:06.000 : en:Return Engagement
00:38:22.000 : en:Getting One's Bearings
00:41:52.000 : en:Predator's Prey
00:45:17.000 : en:In For A Storm
00:49:07.000 : en:Voracious Creatures
00:52:05.000 : en:Change Of Mind
00:56:16.000 : en:Play By Play
01:00:13.000 : en:Perfectly Obvious
01:05:01.000 : en:Ceremony Of Courage
01:09:04.000 : en:Confessions
01:12:24.000 : en:River Conversation
01:15:59.000 : en:District Office Menace
01:20:56.000 : en:Her Scars
01:23:23.000 : en:Unfaithful
01:26:48.000 : en:Gorilla Study
01:30:29.000 : en:Calling A Bluff
01:34:07.000 : en:Restless Night
01:37:13.000 : en:Really In Love
01:40:19.000 : en:Man To Man
01:45:38.000 : en:A Wife As Pretty
01:48:07.000 : en:Vic's Choice
01:53:03.000 : en:Quick-Change Artists
01:55:46.000 : en:Cast List

Скриншоты

Показать сообщения:    

Текущее время: 22-Сен 19:49

Часовой пояс: UTC - 1


Вы не можете начинать темы
Вы не можете отвечать на сообщения
Вы не можете редактировать свои сообщения
Вы не можете удалять свои сообщения
Вы не можете голосовать в опросах
Вы не можете прикреплять файлы к сообщениям
Вы не можете скачивать файлы

!ВНИМАНИЕ!
Сайт не предоставляет электронные версии произведений, а занимается лишь коллекционированием и каталогизацией ссылок, присылаемых и публикуемых на форуме нашими читателями. Если вы являетесь правообладателем какого-либо представленного материала и не желаете, чтобы ссылка на него находилась в нашем каталоге, свяжитесь с нами, и мы незамедлительно удалим ее. Файлы для обмена на трекере предоставлены пользователями сайта, и администрация не несет ответственности за их содержание. Просьба не заливать файлы, защищенные авторскими правами, а также файлы нелегального содержания!