Ивановский Торрент трекер
Яндекс.Погода
 

[Цитировать]
HUNTER

Мичман Хорнблауэр: Равные шансы / Hornblower: The Even Chance
Год выпуска: 1998
Страна: Великобритания
Жанр: Драма, приключения, военный
Продолжительность: 01:40:03
Перевод: Профессиональный многоголосый закадровый
Русские субтитры: нет
Режиссёр: Эндрю Грив
В ролях: Йоан Гриффит, Роберт Линдсэй, Дориан Хили, Майкл Бирн, Роберт Баферст, Дункан Белл, Пол Копли, Шон Джилдер, Саймон Шерлок, Крис Барнс, Джейми Бамбер, Колин МакЛахлан, Роджер Май, Винсент Грасс, Ричард Ламсден, Фрэнк Бойс, Саймон Марки, Оливер Монтгомери, Луана Мота
Описание: ]1793 год. В Европе началась эпоха войн и революций. Семнадцатилетний Горацио Хорнблауэр поступает на службу в британский королевский флот. Юный мичман страдает от морской болезни и терпит унижения от жестокого сослуживца Симпсона. После объявления войны Франции у Хорнблауэра появляется возможность проявить себя в сражениях с врагом и отстоять свою честь на дуэли.СэмплКачество: DVDRip
Формат: AVI
Видео кодек: XviD
Аудио кодек: AC3
Видео: 704x400 (1.76:1), 25 fps, XviD MPEG-4 ~781 kbps avg, 0.11 bit/pixel
Аудио: 48 kHz, AC3 Dolby Digital, 2/0 (L,R) ch, ~192 kbps

MI

Общее
Полное имя : D:\Hornblower.1-3.sezon.(8.serij).1996-2003.XViD.DVDRip\Hornblower первый сезон\Hornblower.S01E01.avi
Формат : AVI
Формат/Информация : Audio Video Interleave
Размер файла : 701 Мбайт
Продолжительность : 1 ч. 40 м.
Общий поток : 980 Кбит/сек
Программа кодирования : VirtualDubMod 1.5.4.1 (build 2178/release)
Библиотека кодирования : VirtualDubMod build 2178/release
Видео
Идентификатор : 0
Формат : MPEG-4 Visual
Профиль формата : Advanced Simple@L5
Параметр BVOP формата : 1
Параметр QPel формата : Нет
Параметр GMC формата : Без точки перехода
Параметр матрицы формата : Выборочная
Идентификатор кодека : XVID
Идентификатор кодека/Подсказка : XviD
Продолжительность : 1 ч. 40 м.
Битрейт : 781 Кбит/сек
Ширина : 704 пикселя
Высота : 400 пикселей
Соотношение сторон : 16:9
Частота кадров : 25,000 кадров/сек
Цветовое пространство : YUV
Субдискретизация насыщенности : 4:2:0
Битовая глубина : 8 бит
Тип развёртки : Прогрессивная
Метод сжатия : С потерями
Бит/(Пиксели*Кадры) : 0.111
Размер потока : 559 Мбайт (80%)
Библиотека кодирования : XviD 64
Аудио
Идентификатор : 1
Формат : AC-3
Формат/Информация : Audio Coding 3
Расширение режима : CM (complete main)
Параметр Endianness формата : Big
Идентификатор кодека : 2000
Продолжительность : 1 ч. 40 м.
Вид битрейта : Постоянный
Битрейт : 192 Кбит/сек
Каналы : 2 канала
Расположение каналов : Front: L R
Частота : 48,0 КГц
Битовая глубина : 16 бит
Метод сжатия : С потерями
Размер потока : 137 Мбайт (20%)
Выравнивание : Разделение по промежуткам
Продолжительность промежутка : 96 мс. (2,40 видеокадра)
Время предзагрузки промежутка : 96 мс.
Язык : Russian

Скриншот c названием фильма

Скриншоты

Мичман Хорнблауэр: Экзамен на лейтенанта / Hornblower: The Examination for Lieutenant
Год выпуска: 1998
Страна: Великобритания
Жанр: Драма, приключения, военный
Продолжительность: 01:38:32
Перевод: Профессиональный многоголосый закадровый
Русские субтитры: нет
Режиссёр: Эндрю Грив
В ролях: Йоан Гриффит, Роберт Линдсэй, Дориан Хили, Майкл Бирн, Роберт Баферст, Дункан Белл, Пол Копли, Шон Джилдер, Саймон Шерлок, Крис Барнс, Джейми Бамбер, Колин МакЛахлан, Роджер Май, Винсент Грасс, Ричард Ламсден, Фрэнк Бойс, Саймон Марки, Оливер Монтгомери, Луана Мота
Описание: Продолжается англо-французская война. Британская эскадра в Гибралтаре три недели не получает провиант. Моряки голодают, всё чаще раздаются призывы к бунту. Горацио Хорнблауэр отправляется в африканский порт Оран пополнить запасы продовольствия. Но там его ждёт страшное открытие, которое ставит под угрозу жизнь каждого моряка английской эскадры в Гибралтаре.СэмплКачество: DVDRip
Формат: AVI
Видео кодек: XviD
Аудио кодек: AC3
Видео: 704x400 (1.76:1), 25 fps, XviD MPEG-4 ~796 kbps avg, 0.11 bit/pixel
Аудио: 48 kHz, AC3 Dolby Digital, 2/0 (L,R) ch, ~192 kbps

MI

Общее
Полное имя : D:\Hornblower.1-3.sezon.(8.serij).1996-2003.XViD.DVDRip\Hornblower первый сезон\Hornblower.S01E02.avi
Формат : AVI
Формат/Информация : Audio Video Interleave
Размер файла : 701 Мбайт
Продолжительность : 1 ч. 38 м.
Общий поток : 995 Кбит/сек
Программа кодирования : VirtualDubMod 1.5.4.1 (build 2178/release)
Библиотека кодирования : VirtualDubMod build 2178/release
Видео
Идентификатор : 0
Формат : MPEG-4 Visual
Профиль формата : Advanced Simple@L5
Параметр BVOP формата : 1
Параметр QPel формата : Нет
Параметр GMC формата : Без точки перехода
Параметр матрицы формата : Выборочная
Идентификатор кодека : XVID
Идентификатор кодека/Подсказка : XviD
Продолжительность : 1 ч. 38 м.
Битрейт : 796 Кбит/сек
Ширина : 704 пикселя
Высота : 400 пикселей
Соотношение сторон : 16:9
Частота кадров : 25,000 кадров/сек
Цветовое пространство : YUV
Субдискретизация насыщенности : 4:2:0
Битовая глубина : 8 бит
Тип развёртки : Прогрессивная
Метод сжатия : С потерями
Бит/(Пиксели*Кадры) : 0.113
Размер потока : 561 Мбайт (80%)
Библиотека кодирования : XviD 64
Аудио
Идентификатор : 1
Формат : AC-3
Формат/Информация : Audio Coding 3
Расширение режима : CM (complete main)
Параметр Endianness формата : Big
Идентификатор кодека : 2000
Продолжительность : 1 ч. 38 м.
Вид битрейта : Постоянный
Битрейт : 192 Кбит/сек
Каналы : 2 канала
Расположение каналов : Front: L R
Частота : 48,0 КГц
Битовая глубина : 16 бит
Метод сжатия : С потерями
Размер потока : 135 Мбайт (19%)
Выравнивание : Разделение по промежуткам
Продолжительность промежутка : 96 мс. (2,40 видеокадра)
Время предзагрузки промежутка : 96 мс.
Язык : Russian

Скриншот c названием фильма

Скриншоты

Мичман Хорнблауэр: Герцогиня и дьявол / Hornblower: The Duchess and the Devil
Год выпуска: 1999
Страна: Великобритания
Жанр: Драма, приключения, военный
Продолжительность: 01:39:43
Перевод: Профессиональный многоголосый закадровый
Русские субтитры: нет
Режиссёр: Эндрю Грив
В ролях: Йоан Гриффит, Роберт Линдсэй, Дориан Хили, Майкл Бирн, Роберт Баферст, Дункан Белл, Пол Копли, Шон Джилдер, Саймон Шерлок, Крис Барнс, Джейми Бамбер, Колин МакЛахлан, Роджер Май, Винсент Грасс, Ричард Ламсден, Фрэнк Бойс, Саймон Марки, Оливер Монтгомери, Луана Мота
Описание: Англия ведёт войну против Франции и Испании. Капитан Пэлью поручает Горацио Хорнблауэру отвезти на родину из Гибралтара одну знатную пассажирку — герцогиню Уорфедельскую. Однако плавание вдоль вражеских берегов заканчивается, едва начавшись, и Хорнблауэр попадает в испанский плен. Но герцогиня как будто совсем не расстроена таким поворотом событий…СэмплКачество: DVDRip
Формат: AVI
Видео кодек: XviD
Аудио кодек: AC3
Видео: 704x400 (1.76:1), 25 fps, XviD MPEG-4 ~785 kbps avg, 0.11 bit/pixel
Аудио: 48 kHz, AC3 Dolby Digital, 2/0 (L,R) ch, ~192 kbps

MI

Общее
Полное имя : D:\Hornblower.1-3.sezon.(8.serij).1996-2003.XViD.DVDRip\Hornblower первый сезон\Hornblower.S01E03.avi
Формат : AVI
Формат/Информация : Audio Video Interleave
Размер файла : 701 Мбайт
Продолжительность : 1 ч. 39 м.
Общий поток : 983 Кбит/сек
Программа кодирования : VirtualDubMod 1.5.4.1 (build 2178/release)
Библиотека кодирования : VirtualDubMod build 2178/release
Видео
Идентификатор : 0
Формат : MPEG-4 Visual
Профиль формата : Advanced Simple@L5
Параметр BVOP формата : 1
Параметр QPel формата : Нет
Параметр GMC формата : Без точки перехода
Параметр матрицы формата : Выборочная
Идентификатор кодека : XVID
Идентификатор кодека/Подсказка : XviD
Продолжительность : 1 ч. 39 м.
Битрейт : 785 Кбит/сек
Ширина : 704 пикселя
Высота : 400 пикселей
Соотношение сторон : 16:9
Частота кадров : 25,000 кадров/сек
Цветовое пространство : YUV
Субдискретизация насыщенности : 4:2:0
Битовая глубина : 8 бит
Тип развёртки : Прогрессивная
Метод сжатия : С потерями
Бит/(Пиксели*Кадры) : 0.111
Размер потока : 560 Мбайт (80%)
Библиотека кодирования : XviD 64
Аудио
Идентификатор : 1
Формат : AC-3
Формат/Информация : Audio Coding 3
Расширение режима : CM (complete main)
Параметр Endianness формата : Big
Идентификатор кодека : 2000
Продолжительность : 1 ч. 39 м.
Вид битрейта : Постоянный
Битрейт : 192 Кбит/сек
Каналы : 2 канала
Расположение каналов : Front: L R
Частота : 48,0 КГц
Битовая глубина : 16 бит
Метод сжатия : С потерями
Размер потока : 137 Мбайт (20%)
Выравнивание : Разделение по промежуткам
Продолжительность промежутка : 96 мс. (2,40 видеокадра)
Время предзагрузки промежутка : 96 мс.
Язык : Russian

Скриншот c названием фильма

Скриншоты

2 сезон http://rutracker.org/forum/viewtopic.php?t=4194733
3 сезон http://rutracker.org/forum/viewtopic.php?t=4193811
Показать сообщения:    

Текущее время: 19-Сен 16:16

Часовой пояс: UTC - 1


Вы не можете начинать темы
Вы не можете отвечать на сообщения
Вы не можете редактировать свои сообщения
Вы не можете удалять свои сообщения
Вы не можете голосовать в опросах
Вы не можете прикреплять файлы к сообщениям
Вы не можете скачивать файлы

!ВНИМАНИЕ!
Сайт не предоставляет электронные версии произведений, а занимается лишь коллекционированием и каталогизацией ссылок, присылаемых и публикуемых на форуме нашими читателями. Если вы являетесь правообладателем какого-либо представленного материала и не желаете, чтобы ссылка на него находилась в нашем каталоге, свяжитесь с нами, и мы незамедлительно удалим ее. Файлы для обмена на трекере предоставлены пользователями сайта, и администрация не несет ответственности за их содержание. Просьба не заливать файлы, защищенные авторскими правами, а также файлы нелегального содержания!