Ивановский Торрент трекер
Яндекс.Погода
 

[Цитировать]
HUNTER

Михаил Лермонтов. Последний круиз
Дата/Год выпуска: 2004
Страна: Россия
Жанр: Документальный, катастрофа, СССР
Продолжительность: 00:51:48
Перевод: Не требуется
Русские субтитры: нет
Режиссер: Елена Котунова
Телеканал: Ocean TV
Описание: В 1986 году у берегов Новой Зеландии затонул лучший пассажирский лайнер советского флота "Михаил Лермонтов". На его борту находилось более 800 туристов и членов экипажа. "Лермонтов" обслуживал только западных туристов, а большая часть населения СССР даже не догадывалась о его существовании. Его жизнь была окутана тайной, остается тайной и его гибель. В фильме трагедия "Михаила Лермонтова" рассматривается с разных сторон. Хронология катастрофы и спасения пассажиров, подробности крушения, о которых рассказывают непосредственные участники событий, история самого корабля и, как отражение в ней, история пассажирского флота СССР. В фильме также рассказывается о расследовании катастрофы в России и Новой Зеландии и судьбе судна в наши дни.
Сэмпл: https://www.sendspace.com/file/wag2dj
качество: IPTVRip
формат: AVI
Видео: 720x480 (1.50:1), 25 fps, XviD MPEG-4 ~1954 kbps avg, 0.23 bit/pixel
Аудио: 48 kHz, AC3 Dolby Digital, 2/0 (L,R) ch, ~192 kbps

MediaInfo

GeneralComplete name : W:\Pshichko66\Na zapis'\Документальные фильмы\Mihail Lermontov. Poslednij kruiz.aviFormat : AVIFormat/Info : Audio Video InterleaveFile size : 799 MiBDuration : 51mn 48sOverall bit rate : 2 156 KbpsWriting application : VirtualDubMod 1.5.10.2 (build 2540/release)Writing library : VirtualDubMod build 2540/release
VideoID : 0Format : MPEG-4 VisualFormat profile : Advanced Simple@L5Format settings, BVOP : 2Format settings, QPel : NoFormat settings, GMC : No warppointsFormat settings, Matrix : CustomCodec ID : XVIDCodec ID/Hint : XviDDuration : 51mn 48sBit rate : 1 955 KbpsWidth : 720 pixelsHeight : 480 pixelsDisplay aspect ratio : 3:2Frame rate : 25.000 fpsColor space : YUVChroma subsampling : 4:2:0Bit depth : 8 bitsScan type : ProgressiveCompression mode : LossyBits/(Pixel*Frame) : 0.226Stream size : 724 MiB (91%)Writing library : XviD 73
AudioID : 1Format : AC-3Format/Info : Audio Coding 3Mode extension : CM (complete main)Format settings, Endianness : BigCodec ID : 2000Duration : 51mn 48sBit rate mode : ConstantBit rate : 192 KbpsChannel(s) : 2 channelsChannel positions : Front: L RSampling rate : 48.0 KHzCompression mode : LossyStream size : 71.2 MiB (9%)Alignment : Split accross interleavesInterleave, duration : 40 ms (1.00 video frame)Interleave, preload duratio : 500 ms

Скриншоты

0 человек читают эту тему: 0 пользователей, 0 скрытых пользователей, 0 гостей

Показать сообщения:    

Текущее время: 22-Авг 23:41

Часовой пояс: UTC - 1


Вы не можете начинать темы
Вы не можете отвечать на сообщения
Вы не можете редактировать свои сообщения
Вы не можете удалять свои сообщения
Вы не можете голосовать в опросах
Вы не можете прикреплять файлы к сообщениям
Вы не можете скачивать файлы

!ВНИМАНИЕ!
Сайт не предоставляет электронные версии произведений, а занимается лишь коллекционированием и каталогизацией ссылок, присылаемых и публикуемых на форуме нашими читателями. Если вы являетесь правообладателем какого-либо представленного материала и не желаете, чтобы ссылка на него находилась в нашем каталоге, свяжитесь с нами, и мы незамедлительно удалим ее. Файлы для обмена на трекере предоставлены пользователями сайта, и администрация не несет ответственности за их содержание. Просьба не заливать файлы, защищенные авторскими правами, а также файлы нелегального содержания!