Важное объявление!
У Нас Все раздачи мультитрекерные, при нуле пиров в релизах, можете смело вставать на закачку!
Статистика раздачи
Размер:  2.85 GB   |    Зарегистрирован:  3 года 5 месяцев   |    Скачан:  0 раз    |   

Полного источника не было: Никогда

 
     
 
 
 
Автор Сообщение

HUNTER

Стаж:
4 года 9 месяцев
Сообщений:
65013

Репутация: 101

[+] [-]
Вне форума [Профиль] [ЛС]

Михаил Задорнов «История не для всех»-Год выпуска: 2013
Страна: Россия, РEН TВ
Жанр: сатира
Продолжительность: 01:42:05
Перевод: Не требуется
Субтитры: нет-Описание: Лучшие произведения сатирика Михаила Задорнова о парадоксах русской истории, её искажениях в учебниках и… летописях.-Качество: DVB
Формат: MPG
Видео кодек: MPEG-PS
Аудио кодек: MPEG Audio
Видео: MPEG-PS, 704х576, 4:3, 3727 Кбит/сек, 25,000 кадров/сек, PAL
Аудио: MPEG Audio, Layer 2, 192 Кбит/сек, 48,0 КГц, 2 канала-

MediaInfo

Формат : MPEG-PS
Размер файла : 2,85 Гбайт
Продолжительность : 1 ч. 42 м.
Режим общего битрейта : Переменный
Общий поток : 3998 Кбит/сек
Видео
Идентификатор : 224 (0xE0)
Формат : MPEG Video
Версия формата : Version 2
Профиль формата : Main@Main
Параметр BVOP формата : Да
Параметр матрицы формата : Выборочная
Параметр GOP формата : Variable
Продолжительность : 1 ч. 42 м.
Вид битрейта : Переменный
Битрейт : 3727 Кбит/сек
Максимальный битрейт : 15,0 Мбит/сек
Ширина : 704 пикселя
Высота : 576 пикселей
Соотношение сторон : 4:3
Частота кадров : 25,000 кадров/сек
Стандарт вещания : PAL
Цветовое пространство : YUV
Субдискретизация насыщенности : 4:2:0
Битовая глубина : 8 бит
Метод сжатия : С потерями
Бит/(Пиксели*Кадры) : 0.368
TimeCode_FirstFrame : 00:00:00:00
TimeCode_Source : Group of pictures header
Размер потока : 2,66 Гбайт (93%)
Аудио
Идентификатор : 192 (0xC0)
Формат : MPEG Audio
Версия формата : Version 1
Профиль формата : Layer 2
Режим : Dual mono
Расширение режима : MS Stereo
Продолжительность : 1 ч. 42 м.
Вид битрейта : Постоянный
Битрейт : 192 Кбит/сек
Каналы : 2 канала
Частота : 48,0 КГц
Метод сжатия : С потерями
Размер потока : 140 Мбайт (5%)

Скриншоты

[iv-torrents.ru].t12678.torrent 
Торрент: Зарегистрирован   [ 2013-11-11 11:53 ]

Скачать .torrent

Скачать

15 KB

Статус: проверено
Скачан торрент файл: 315
Размер: 2.85 GB  ·  Тип торрента
Оценка релиза:  Средний балл: 0.0 (0 голосов, вы еще не оценили этот релиз)
Поблагодарили: Спасибо
 
Похожие темы

Пожертвовать руб.

_________________
Показать сообщения:    

Текущее время: Сегодня 23:05

Часовой пояс: GMT



Вы не можете начинать темы
Вы не можете отвечать на сообщения
Вы не можете редактировать свои сообщения
Вы не можете удалять свои сообщения
Вы не можете голосовать в опросах
Вы не можете прикреплять файлы к сообщениям
Вы можете скачивать файлы