Ивановский Торрент трекер
Яндекс.Погода
Статистика раздачи
Размер:  2.85 GB   |    Зарегистрирован:  3 года 10 месяцев   |    Скачан:  0 раз
Сидов:  5  [  0 KB/s  ]   Личеров:  1  [  0 KB/s  ]   Подробная статистика пиров
   
 

[Цитировать]
HUNTER

Михаил Задорнов «История не для всех»-Год выпуска: 2013
Страна: Россия, РEН TВ
Жанр: сатира
Продолжительность: 01:42:05
Перевод: Не требуется
Субтитры: нет-Описание: Лучшие произведения сатирика Михаила Задорнова о парадоксах русской истории, её искажениях в учебниках и… летописях.-Качество: DVB
Формат: MPG
Видео кодек: MPEG-PS
Аудио кодек: MPEG Audio
Видео: MPEG-PS, 704х576, 4:3, 3727 Кбит/сек, 25,000 кадров/сек, PAL
Аудио: MPEG Audio, Layer 2, 192 Кбит/сек, 48,0 КГц, 2 канала-

MediaInfo

Формат : MPEG-PS
Размер файла : 2,85 Гбайт
Продолжительность : 1 ч. 42 м.
Режим общего битрейта : Переменный
Общий поток : 3998 Кбит/сек
Видео
Идентификатор : 224 (0xE0)
Формат : MPEG Video
Версия формата : Version 2
Профиль формата : Main@Main
Параметр BVOP формата : Да
Параметр матрицы формата : Выборочная
Параметр GOP формата : Variable
Продолжительность : 1 ч. 42 м.
Вид битрейта : Переменный
Битрейт : 3727 Кбит/сек
Максимальный битрейт : 15,0 Мбит/сек
Ширина : 704 пикселя
Высота : 576 пикселей
Соотношение сторон : 4:3
Частота кадров : 25,000 кадров/сек
Стандарт вещания : PAL
Цветовое пространство : YUV
Субдискретизация насыщенности : 4:2:0
Битовая глубина : 8 бит
Метод сжатия : С потерями
Бит/(Пиксели*Кадры) : 0.368
TimeCode_FirstFrame : 00:00:00:00
TimeCode_Source : Group of pictures header
Размер потока : 2,66 Гбайт (93%)
Аудио
Идентификатор : 192 (0xC0)
Формат : MPEG Audio
Версия формата : Version 1
Профиль формата : Layer 2
Режим : Dual mono
Расширение режима : MS Stereo
Продолжительность : 1 ч. 42 м.
Вид битрейта : Постоянный
Битрейт : 192 Кбит/сек
Каналы : 2 канала
Частота : 48,0 КГц
Метод сжатия : С потерями
Размер потока : 140 Мбайт (5%)

Скриншоты

[iv-torrents.ru].t12678.torrent
Торрент: Зарегистрирован [ 2013-11-11 10:53 ] · 56386E2A2CC81862854E21AEED3A7352AD7BE078

Скачать .torrent

Скачать

15 KB

Статус: проверено
Скачан: 0 раз
Размер: 2.85 GB
terms.php
Похожие темы
Показать сообщения:    

Текущее время: 24-Сен 02:13

Часовой пояс: UTC - 1


Вы не можете начинать темы
Вы не можете отвечать на сообщения
Вы не можете редактировать свои сообщения
Вы не можете удалять свои сообщения
Вы не можете голосовать в опросах
Вы не можете прикреплять файлы к сообщениям
Вы можете скачивать файлы

!ВНИМАНИЕ!
Сайт не предоставляет электронные версии произведений, а занимается лишь коллекционированием и каталогизацией ссылок, присылаемых и публикуемых на форуме нашими читателями. Если вы являетесь правообладателем какого-либо представленного материала и не желаете, чтобы ссылка на него находилась в нашем каталоге, свяжитесь с нами, и мы незамедлительно удалим ее. Файлы для обмена на трекере предоставлены пользователями сайта, и администрация не несет ответственности за их содержание. Просьба не заливать файлы, защищенные авторскими правами, а также файлы нелегального содержания!