Ивановский Торрент трекер
Яндекс.Погода
 

[Цитировать]
HUNTER

Мистер и миссис Смит / Mr. & Mrs. Smith- Год выпуска: 1941
Страна: Великобритания
Жанр: комедия, мелодрама
Продолжительность: 01:34:58
Перевод 1: Профессиональный (многоголосый закадровый) Светла
Перевод 2: Профессиональный (многоголосый закадровый) Видеобаза
Перевод 3: Профессиональный (многоголосый закадровый) DVD-Магия
Оригинальная аудиодорожка: Английская
Cубтитры: Английские-Режиссер: Альфред Хичкок / Alfred Hitchcock
В ролях: Сильвия Сидни, Оскар Хомолка, Десмонд Тестер, Джон Лодер, Джойс Барбо, Мэттью Болтон, С.Дж. Уормингтон, Уильям Дьюхерст, Памела Беван, Питер Булл-Описание:
Милая супружеская пара Дэвид (Роберт Монтгомери) и Энни Смит (Кэрол Ломбард) живут в мире и согласии. Они начали свою совместную жизнь с заключения брачного контракта с множеством всевозможных правил и условий. Согласно одному из них, супруги раз в месяц задают друг другу по одному вопросу, ответ на который должен быть полностью правдивым. Однажды утром за завтраком Энни спрашивает Дэвида: женился бы он на ней сегодня вновь или остался холостяком - на что Дэвид ответил, что предпочел бы остаться холостяком, но за три года уже привык быть женатым и поэтому не расстаётся с любимой Энни. Этим же утром в офис Дэвида приходит чиновник из мэрии, и сообщает, что возникли кое-какие сложности с определением границ районов города, вследствие чего все супружеские пары, заключившие брак между 1936 и 1939 годами, считаются недействительными. Дэвид задумывается, нужен ли ему этот брак и решает обратить эту абсурдную ситуацию в розыгрыш для ставшей «незаконной» супруги. Однако «фиктивный» муж и не догадывается, что чиновник уже сообщил Энни о недействительности их брака… Этот фильм является самой легкой из лент Хичкока и поражает не только необычайным драйвом, но и туго закрученным сюжетом. Мастер фильмов жанра нуар в очередной раз показал свой талант разнопланового режиссера, способного работать в любом жанре, даже комедийном. (Светла).-За дорожки спасибо palmeiras.
| Сэмпл-Качество: WEB-DL 720p (brento)
Контейнер: MKV
Видео: AVC, 982x720 (1.33:1), 23.976 fps, 3917 kbps
Аудио 1: Русский AC3 2.0, 48 kHz, 192 kbps — Светла
Аудио 2: Русский AC3 2.0, 48 kHz, 192 kbps — Видеобаза
Аудио 3: Русский AC3 2.0, 48 kHz, 192 kbps — DVD-Магия
Аудио 4: Английский AC3 2.0, 48 kHz, 192 kbps
Аудио 5: Английкий AAC 2.0, 48 kHz, 123 kbps
Формат субтитров: softsub (SRT)

Скриншоты


MI

General
Unique ID : 254385147902451872396527103160394947806 (0xBF60CC20C926AED780D064162E039CDE)
Complete name : Mr. & Mrs. Smith 1941 720p WEB-DL H.264-brento.mkv
Format : Matroska
Format version : Version 2
File size : 3.19 GiB
Duration : 1h 34mn
Overall bit rate : 4 812 Kbps
Movie name : Mr. & Mrs. Smith / Мистер и миссис Смит (1941) – RuTracker
Encoded date : UTC 2014-04-10 13:59:18
Writing application : mkvmerge v6.1.0 ('Old Devil') built on Mar 2 2013 14:32:37
Writing library : libebml v1.3.0 + libmatroska v1.4.0
Attachment : Yes
Video
ID : 1
Format : AVC
Format/Info : Advanced Video Codec
Format profile : High@L3.1
Format settings, CABAC : No
Format settings, ReFrames : 2 frames
Codec ID : V_MPEG4/ISO/AVC
Duration : 1h 34mn
Width : 982 pixels
Height : 720 pixels
Display aspect ratio : 4:3
Frame rate mode : Constant
Frame rate : 23.976 fps
Color space : YUV
Chroma subsampling : 4:2:0
Bit depth : 8 bits
Scan type : Progressive
Title : Mr. & Mrs. Smith 1941 720p WEB-DL AAC2.0 H.264-brento
Language : English
Default : Yes
Forced : No
Color primaries : BT.709
Transfer characteristics : BT.709
Matrix coefficients : BT.709
Audio #1
ID : 2
Format : AC-3
Format/Info : Audio Coding 3
Mode extension : CM (complete main)
Format settings, Endianness : Big
Codec ID : A_AC3
Duration : 1h 34mn
Bit rate mode : Constant
Bit rate : 192 Kbps
Channel(s) : 2 channels
Channel positions : Front: L R
Sampling rate : 48.0 KHz
Bit depth : 16 bits
Compression mode : Lossy
Stream size : 130 MiB (4%)
Title : MVO – Светла
Language : Russian
Default : Yes
Forced : No
Audio #2
ID : 3
Format : AC-3
Format/Info : Audio Coding 3
Mode extension : CM (complete main)
Format settings, Endianness : Big
Codec ID : A_AC3
Duration : 1h 34mn
Bit rate mode : Constant
Bit rate : 192 Kbps
Channel(s) : 2 channels
Channel positions : Front: L R
Sampling rate : 48.0 KHz
Bit depth : 16 bits
Compression mode : Lossy
Stream size : 130 MiB (4%)
Title : MVO – Видеобаза
Language : Russian
Default : No
Forced : No
Audio #3
ID : 4
Format : AC-3
Format/Info : Audio Coding 3
Mode extension : CM (complete main)
Format settings, Endianness : Big
Codec ID : A_AC3
Duration : 1h 34mn
Bit rate mode : Constant
Bit rate : 192 Kbps
Channel(s) : 2 channels
Channel positions : Front: L R
Sampling rate : 48.0 KHz
Bit depth : 16 bits
Compression mode : Lossy
Stream size : 130 MiB (4%)
Title : MVO – DVD-Магия
Language : Russian
Default : No
Forced : No
Audio #4
ID : 5
Format : AC-3
Format/Info : Audio Coding 3
Mode extension : CM (complete main)
Format settings, Endianness : Big
Codec ID : A_AC3
Duration : 1h 34mn
Bit rate mode : Constant
Bit rate : 192 Kbps
Channel(s) : 1 channel
Channel positions : Front: C
Sampling rate : 48.0 KHz
Bit depth : 16 bits
Compression mode : Lossy
Stream size : 130 MiB (4%)
Title : Original (DVD)
Language : English
Default : No
Forced : No
Audio #5
ID : 6
Format : AAC
Format/Info : Advanced Audio Codec
Format profile : LC
Codec ID : A_AAC
Duration : 1h 34mn
Channel(s) : 2 channels
Channel positions : Front: L R
Sampling rate : 48.0 KHz
Compression mode : Lossy
Title : Original (iTunes)
Language : English
Default : No
Forced : No
Text
ID : 7
Format : UTF-8
Codec ID : S_TEXT/UTF8
Codec ID/Info : UTF-8 Plain Text
Language : English
Default : No
Forced : No
Menu
00:00:00.000 : en:Credits.
00:01:00.000 : en:Bunkered in the bedroom.
00:06:02.000 : en:Honest Answer.
00:09:45.000 : en:Kinda funny news.
00:13:07.000 : en:Date with a mistress.
00:15:37.000 : en:Inhale; don't inhale.
00:19:29.000 : en:Momma Lucy's.
00:23:28.000 : en:Found out.
00:27:41.000 : en:A second night.
00:31:36.000 : en:At and out of work.
00:37:34.000 : en:Custer's stand.
00:42:03.000 : en:Nosing around for a date.
00:46:25.000 : en:Eyes on each other.
00:50:49.000 : en:Nosing around for sympathy.
00:53:15.000 : en:Stuck at the fair.
00:57:59.000 : en:Evils of liquor.
01:01:55.000 : en:Goodnight and thank you.
01:04:22.000 : en:Meet the parents.
01:08:43.000 : en:Making mischief and noises.
01:11:14.000 : en:Flaccid at Lake Placid.
01:15:39.000 : en:Not-so-fast asleep.
01:20:00.000 : en:Shave and manicure.
01:22:10.000 : en:The lady proposes.
01:26:03.000 : en:The walls have ears.
01:29:52.000 : en:Quieter moment.
01:32:10.000 : en:Ski-lodged.
01:34:18.000 : en:Cast list.


Показать сообщения:    

Текущее время: 12-Дек 12:28

Часовой пояс: UTC ± 0


Вы не можете начинать темы
Вы не можете отвечать на сообщения
Вы не можете редактировать свои сообщения
Вы не можете удалять свои сообщения
Вы не можете голосовать в опросах
Вы не можете прикреплять файлы к сообщениям
Вы не можете скачивать файлы

!ВНИМАНИЕ!
Сайт не предоставляет электронные версии произведений, а занимается лишь коллекционированием и каталогизацией ссылок, присылаемых и публикуемых на форуме нашими читателями. Если вы являетесь правообладателем какого-либо представленного материала и не желаете, чтобы ссылка на него находилась в нашем каталоге, свяжитесь с нами, и мы незамедлительно удалим ее. Файлы для обмена на трекере предоставлены пользователями сайта, и администрация не несет ответственности за их содержание. Просьба не заливать файлы, защищенные авторскими правами, а также файлы нелегального содержания!