Важное объявление!
У Нас Все раздачи мультитрекерные, при нуле пиров в релизах, можете смело вставать на закачку!
 
Автор Сообщение

HUNTER

Стаж:
4 года 6 месяцев
Сообщений:
60970

Репутация: 101

[+] [-]
Вне форума [Профиль] [ЛС]

Мистер Аркадин: Тайное досье / Mr. Arkadin: Confidential Report
IMDb
Страна: Франция, Испания, Швейцария
Жанр: детектив, драма, триллер, фильм-нуар
Год выпуска: 1955
Продолжительность: 01:37:42
Перевод: Профессиональный (двухголосый закадровый)
Cубтитры: английские
Оригинальная аудиодорожка: английский и не только
Режиссер, сценарист: Орсон Уэллс / Orson Welles
В ролях: Паола Мори /Paola Mori/, Роберт Арден /Robert Arden/, Пэтришиа Медина /Patricia Medina/, Майкл Редгрэйв /Michael Redgrave/, Аким Тамирофф /Akim Tamiroff/, Орсон Уэллс /Orson Welles и др.
Описание: Грегори Аркадин - фигура темная, архикапиталист, чье могущество и богатство окутано тайной. У него есть замок в Испании. Есть дочь, красивая, полная жизни, оберегаемая, как дочь султана. Аркадин страдает амнезией и нанимает мелкого американского контрабандиста, чтобы тот "раскопал" его прошлое...
Доп. информация: Файл раздачи предоставил мосрентген15, звук подгонял colt451.
Сэмпл: https://yadi.sk/i/61FXlJduifk7a
Тип релиза: BDRip 1080p
Контейнер: MKV
Видео: x264, L4.1, 1456x1080, 23.976 fps, ~12622 Kbps
Аудио 1: AC3 2.0 / 48 kHz / 192 kbps - Russian
Аудио 2: AC3 2.0 / 48 kHz / 192 kbps - Original
Формат субтитров: softsub (SRT)

MediaInfo

General
Unique ID : 232035113965428977850807010351789887787 (0xAE905660BBB720D8A94884700327D12B)
Complete name : Q:\Mr.Arkadin.1955.Confidential.Report.1955.1080p_rus.mkv
Format : Matroska
Format version : Version 4 / Version 2
File size : 8.88 GiB
Duration : 1h 37mn
Overall bit rate : 13.0 Mbps
Encoded date : UTC 2015-08-26 09:34:27
Writing application : mkvmerge v8.3.0 ('Over the Horizon') 32bit
Writing library : libebml v1.3.1 + libmatroska v1.4.2
Video
ID : 1
Format : AVC
Format/Info : Advanced Video Codec
Format profile : High@L4.1
Format settings, CABAC : Yes
Format settings, ReFrames : 5 frames
Codec ID : V_MPEG4/ISO/AVC
Duration : 1h 37mn
Bit rate : 12.6 Mbps
Width : 1 456 pixels
Height : 1 080 pixels
Display aspect ratio : 4:3
Frame rate mode : Constant
Frame rate : 23.976 fps
Color space : YUV
Chroma subsampling : 4:2:0
Bit depth : 8 bits
Scan type : Progressive
Bits/(Pixel*Frame) : 0.335
Stream size : 8.44 GiB (95%)
Writing library : x264 core 144 r2525 40bb568
Encoding settings : cabac=1 / ref=5 / deblock=1:-3:-3 / analyse=0x3:0x113 / me=umh / subme=8 / psy=1 / psy_rd=1.00:0.00 / mixed_ref=1 / me_range=16 / chroma_me=1 / trellis=1 / 8x8dct=1 / cqm=0 / deadzone=21,11 / fast_pskip=1 / chroma_qp_offset=-2 / threads=18 / lookahead_threads=3 / sliced_threads=0 / nr=0 / decimate=1 / interlaced=0 / bluray_compat=0 / constrained_intra=0 / bframes=3 / b_pyramid=2 / b_adapt=2 / b_bias=0 / direct=3 / weightb=1 / open_gop=0 / weightp=2 / keyint=240 / keyint_min=24 / scenecut=40 / intra_refresh=0 / rc_lookahead=50 / rc=2pass / mbtree=1 / bitrate=12622 / ratetol=1.0 / qcomp=0.60 / qpmin=0 / qpmax=69 / qpstep=4 / cplxblur=20.0 / qblur=0.5 / ip_ratio=1.40 / aq=1:1.00
Language : English
Default : Yes
Forced : No
Audio #1
ID : 2
Format : AC-3
Format/Info : Audio Coding 3
Mode extension : CM (complete main)
Format settings, Endianness : Big
Codec ID : A_AC3
Duration : 1h 37mn
Bit rate mode : Constant
Bit rate : 192 Kbps
Channel(s) : 2 channels
Channel positions : Front: L R
Sampling rate : 48.0 KHz
Compression mode : Lossy
Stream size : 134 MiB (1%)
Title : DVO
Language : Russian
Default : Yes
Forced : No
Audio #2
ID : 3
Format : AC-3
Format/Info : Audio Coding 3
Mode extension : CM (complete main)
Format settings, Endianness : Big
Codec ID : A_AC3
Duration : 1h 37mn
Bit rate mode : Constant
Bit rate : 192 Kbps
Channel(s) : 2 channels
Channel positions : Front: L R
Sampling rate : 48.0 KHz
Compression mode : Lossy
Stream size : 134 MiB (1%)
Title : Original
Language : English
Default : No
Forced : No
Text #1
ID : 4
Format : UTF-8
Codec ID : S_TEXT/UTF8
Codec ID/Info : UTF-8 Plain Text
Title : SDH
Language : English
Default : No
Forced : No
Text #2
ID : 5
Format : UTF-8
Codec ID : S_TEXT/UTF8
Codec ID/Info : UTF-8 Plain Text
Language : English
Default : No
Forced : No
Menu #1
00:00:00.000 : en:00:00:00.000
00:00:00.375 : en:00:00:00.375
00:16:27.820 : en:00:16:27.820
00:36:17.509 : en:00:36:17.509
00:49:26.964 : en:00:49:26.964
00:59:15.886 : en:00:59:15.886
01:26:59.881 : en:01:26:59.881
Menu #2
00:00:00.000 : en:00:00:00.000
00:00:00.375 : en:00:00:00.375
00:16:27.820 : en:00:16:27.820
00:36:17.509 : en:00:36:17.509
00:49:26.964 : en:00:49:26.964
00:59:15.886 : en:00:59:15.886
01:26:59.881 : en:01:26:59.881

Скриншоты


_________________
Показать сообщения:    

Текущее время: Сегодня 01:38

Часовой пояс: GMT



Вы не можете начинать темы
Вы не можете отвечать на сообщения
Вы не можете редактировать свои сообщения
Вы не можете удалять свои сообщения
Вы не можете голосовать в опросах
Вы не можете прикреплять файлы к сообщениям
Вы не можете скачивать файлы
Наши партнеры: интернет магазин Ивановского трикотажа textilla.ru