Важное объявление!
У Нас Все раздачи мультитрекерные, при нуле пиров в релизах, можете смело вставать на закачку!
 
Автор Сообщение

HUNTER

Стаж:
4 года 5 месяцев
Сообщений:
60866

Репутация: 101

[+] [-]
Вне форума [Профиль] [ЛС]

Мистерия-Буфф
Страна: СССР
Жанр: мультфильм, политическая сатира, экранизация
Продолжительность: 00:47:18
Год выпуска: 1969
Перевод: Не требуется
Русские субтитры: нет
Режиссёр: Давид Черкасский
В ролях: А. Чернова, В. Беляев, В. Краснощёков, В. Федотов, Ю. Медведев, В. Пасынков
Фильм озвучили: артисты Московского Театра на Таганке
Описание: Экранизация одноимённой сатирической пьесы Владимира Маяковского. История становления советского государства показана посредством буффонадной мультипликации и конферанса в исполнении клоунов-мимов.
Доп. информация: Третья режиссёрская работа Давида Черкасского. Фильм выходил лишь в ограниченный республиканский прокат, а затем был положен "на полку".
Качество: WEBRip
Формат: AVI
Видео: 2092 kbps, 688х464 (3:2), 23.976 fps, MPEG-4 Visual (XviD)
Аудио: 192 kbps, 48.0 kHz, 16 bits, 2 channels, AC-3
Субтитры: отсутствуют

Подробные технические данные

GeneralComplete name : Мистерия-Буфф (1969).aviFormat : AVIFormat/Info : Audio Video InterleaveFile size : 554 MiBDuration : 47mn 18sOverall bit rate : 1 637 KbpsWriting application : VirtualDubMod 1.5.10.3 | www.virtualdub-fr.org || (build 2550/release)Writing library : VirtualDubMod build 2550/release
VideoID : 0Format : MPEG-4 VisualFormat profile : Advanced Simple@L5Format settings, BVOP : 2Format settings, QPel : NoFormat settings, GMC : No warppointsFormat settings, Matrix : Default (H.263)Codec ID : XVIDCodec ID/Hint : XviDDuration : 47mn 18sBit rate : 1 499 KbpsWidth : 640 pixelsHeight : 480 pixelsDisplay aspect ratio : 4:3Frame rate : 25.000 fpsColor space : YUVChroma subsampling : 4:2:0Bit depth : 8 bitsScan type : ProgressiveCompression mode : LossyBits/(Pixel*Frame) : 0.195Stream size : 507 MiB (92%)Writing library : XviD 73
AudioID : 1Format : MPEG AudioFormat version : Version 1Format profile : Layer 3Mode : Joint stereoMode extension : MS StereoCodec ID : 55Codec ID/Hint : MP3Duration : 47mn 18sBit rate mode : ConstantBit rate : 128 KbpsChannel(s) : 2 channelsSampling rate : 44.1 KHzCompression mode : LossyStream size : 43.3 MiB (8%)Alignment : Split accross interleavesInterleave, duration : 40 ms (1.00 video frame)Interleave, preload duration : 500 ms

Скриншоты

Фильмография Давида Черкасского

1965 Тайна чёрного короля
1967 Колумб причаливает к берегу
1969 Мистерия-Буфф
1970 Короткие истории http://rutracker.org/forum/viewtopic.php?t=2141093
1971 Волшебник Ох http://rutracker.org/forum/viewtopic.php?t=899899
1973 Вокруг света поневоле http://rutracker.org/forum/viewtopic.php?t=4975563
1975 Какого рожна хочется? http://rutracker.org/forum/viewtopic.php?t=268582
1976-79 Приключения капитана Врунгеля http://rutracker.org/forum/viewtopic.php?t=3191653
1983 Крылья http://rutracker.org/forum/viewtopic.php?t=3839216
1984-85 Доктор Айболит http://rutracker.org/forum/viewtopic.php?t=3201712
1986-88 Остров сокровищ http://rutracker.org/forum/viewtopic.php?t=2318347
1998 Сумасшедшие макароны http://rutracker.org/forum/viewtopic.php?t=3270162

_________________
Показать сообщения:    

Текущее время: Сегодня 11:29

Часовой пояс: GMT



Вы не можете начинать темы
Вы не можете отвечать на сообщения
Вы не можете редактировать свои сообщения
Вы не можете удалять свои сообщения
Вы не можете голосовать в опросах
Вы не можете прикреплять файлы к сообщениям
Вы не можете скачивать файлы
Наши партнеры: интернет магазин Ивановского трикотажа textilla.ru