Важное объявление!
У Нас Все раздачи мультитрекерные, при нуле пиров в релизах, можете смело вставать на закачку!
 
Автор Сообщение

HUNTER

Стаж:
4 года 9 месяцев
Сообщений:
65047

Репутация: 101

[+] [-]
Вне форума [Профиль] [ЛС]

-
Год выпуска: 2011
Страна: США, ОАЭ, Чехия
Жанр: боевик, триллер
Продолжительность: 02:12:56-Перевод: Профессиональный (полное дублирование)
Режиссер: Брэд Бёрд / Brad Bird
В ролях: Том Круз (Ethan Hunt), Пола Пэттон (Jane Carter), Саймон Пегг (Benji Dunn), Джереми Реннер (William Brandt), Микаэл Нюквист (Kurt Hendricks), Владимир Машков (Anatoly Sidorov), Самули Эдельманн (Wistrom), Анил Капур (Brij Nath), Леа Сейду (Sabine Moreau), Джош Холлоуэй (Trevor Hanaway), Иван Шведов (Leonid Lisenker), Павел Криз (Marek Stefanski)-Описание: Специальный агент отряда «Миссия невыполнима» Итан Хант и его коллеги несправедливо обвинены в причастности к взрыву Кремля. Президент инициирует «Протокол Фантом», в результате которого спецподразделение ликвидировано, и Итан остается без какой-либо поддержки. Он намерен очистить свое доброе имя и предотвратить новую атаку, но делать это ему придется вместе с командой коллег, истинных мотивов которых он до конца не знает.--Качество: BDRip-AVC
Контейнер: MKV
Видео кодек: AVC
Аудио кодек: AC3
Видео: AVC, 1024x424 (2.40:1), 2200 kbps, 23,976 fps, 0,211 bpp
Аудио: / AC3 / 5.1 / 48 kHz / 448 kbps / 16 bit -
Рип: and77200
Группа: -

Рейтинг

7.30 (246 151) 7.429 (49 867)

Скриншоты

Media Info

General
Unique ID : 170159537315649668257724889137196378133 (0x800388EA3892DCF09351BB153A052815)
Complete name : G:\Фильмы\Миссия невыполнима.Протокол Фантом.2011.BDRip-AVC.mkv
Format : Matroska
Format version : Version 4 / Version 2
File size : 2.46 GiB
Duration : 2h 12mn
Overall bit rate : 2 648 Kbps
Encoded date : UTC 2013-11-29 16:30:29
Writing application : mkvmerge v6.4.1 ('Omega Point') built on Sep 16 2013 22:05:10
Writing library : libebml v1.3.0 + libmatroska v1.4.1
Video
ID : 1
Format : AVC
Format/Info : Advanced Video Codec
Format profile : [url=mailto:High@L4.1]High@L4.1[/url]
Format settings, CABAC : Yes
Format settings, ReFrames : 10 frames
Codec ID : V_MPEG4/ISO/AVC
Duration : 2h 12mn
Bit rate : 2 200 Kbps
Width : 1 024 pixels
Height : 424 pixels
Display aspect ratio : 2.40:1
Original display aspect ratio : 2.40:1
Frame rate mode : Constant
Frame rate : 23.976 fps
Color space : YUV
Chroma subsampling : 4:2:0
Bit depth : 8 bits
Scan type : Progressive
Bits/(Pixel*Frame) : 0.211
Stream size : 1.99 GiB (81%)
Writing library : x264 core 124 r2197M 69a0443
Encoding settings : cabac=1 / ref=11 / deblock=1:0:0 / analyse=0x3:0x133 / me=umh / subme=9 / psy=1 / psy_rd=1.00:0.20 / mixed_ref=1 / me_range=11 / chroma_me=1 / trellis=0 / 8x8dct=1 / cqm=0 / deadzone=21,11 / fast_pskip=1 / chroma_qp_offset=-2 / threads=2 / sliced_threads=0 / nr=0 / decimate=1 / interlaced=0 / bluray_compat=0 / constrained_intra=0 / bframes=11 / b_pyramid=1 / b_adapt=0 / b_bias=0 / direct=3 / weightb=1 / open_gop=0 / weightp=0 / keyint=230 / keyint_min=23 / scenecut=40 / intra_refresh=0 / rc_lookahead=40 / rc=2pass / mbtree=1 / bitrate=2200 / ratetol=1.0 / qcomp=0.60 / qpmin=10 / qpmax=51 / qpstep=4 / cplxblur=20.0 / qblur=0.5 / ip_ratio=1.40 / aq=1:1.00
Language : English
Default : Yes
Forced : No
Audio
ID : 2
Format : AC-3
Format/Info : Audio Coding 3
Mode extension : CM (complete main)
Format settings, Endianness : Big
Codec ID : A_AC3
Duration : 2h 12mn
Bit rate mode : Constant
Bit rate : 448 Kbps
Channel count : 6 channels
Channel positions : Front: L C R, Side: L R, LFE
Sampling rate : 48.0 KHz
Bit depth : 16 bits
Compression mode : Lossy
Stream size : 426 MiB (17%)
Language : Russian
Default : Yes
Forced : No
Menu
00:00:00.000 : :Chapter 01
00:04:41.906 : :Chapter 02
00:11:28.896 : :Chapter 03
00:20:01.950 : :Chapter 04
00:27:35.320 : :Chapter 05
00:33:28.172 : :Chapter 06
00:38:18.087 : :Chapter 07
00:44:46.100 : :Chapter 08
00:51:37.219 : :Chapter 09
00:56:05.153 : :Chapter 10
01:02:50.183 : :Chapter 11
01:09:17.820 : :Chapter 12
01:16:32.379 : :Chapter 13
01:22:18.516 : :Chapter 14
01:31:17.054 : :Chapter 15
01:35:57.376 : :Chapter 16
01:42:49.913 : :Chapter 17
01:51:01.780 : :Chapter 18
01:58:26.390 : :Chapter 19
02:05:58.842 : :Chapter 20
Оформление by and77200

_________________
Показать сообщения:    

Текущее время: Сегодня 11:30

Часовой пояс: GMT



Вы не можете начинать темы
Вы не можете отвечать на сообщения
Вы не можете редактировать свои сообщения
Вы не можете удалять свои сообщения
Вы не можете голосовать в опросах
Вы не можете прикреплять файлы к сообщениям
Вы не можете скачивать файлы