Важное объявление!
У Нас Все раздачи мультитрекерные, при нуле пиров в релизах, можете смело вставать на закачку!
 
Автор Сообщение

HUNTER

Стаж:
4 года 10 месяцев
Сообщений:
65542

Репутация: 101

[+] [-]
Вне форума [Профиль] [ЛС]

Миссия в Майами / Ride Along 2
-Год выпуска: 2016
Страна: США
Студия: Universal Pictures
Жанр: боевик, комедия
Продолжительность: 01:41:30
Перевод: Профессиональный (дублированный) Blu-ray CEE / UPI
Cубтитры: русские, украинские, английские
Оригинальная аудиодорожка: английский-Режиссер: Тим Стори / Tim Story-В ролях: Айс Кьюб, Кевин Харт, Тика Самптер, Бенджамин Брэтт, Оливия Манн, Кен Жонг, Брюс МакГилл, Майкл Эдвард Роуз, Шерри Шеперд, Артуро дель Пуэрто и другие.-Роли дублировали: Илья Исаев, Диомид Виноградов, Полина Щербакова, Василий Дахненко, Алёна Фалалеева, Александр Дасевич, Борис Быстров, Анастасия Лапина, Данил Щебланов, Сергей Смирнов, Станислав Тикунов, Иван Жарков, Полина Чекан, Даниил Эльдаров, Александр Носков, Владимир Антипов, Анастасия Жаркова, Анна Киселёва, Артём Маликов, Владимир Никитин, Григорий Маликов, Дина Бобылёва, Дмитрий Поляновский, Екатерина Виноградова, Ирина Маликова, Ирина Пономарёва, Кирилл Туранский, Максим Онищенко, Олег Новиков и другие.-Описание: Накануне собственной свадьбы Бен отправляется с братом своей будущей жены, крутым полицейским Джеймсом, в Майами, чтобы схватить наркодельца.-РЕЛИЗ ОТ: -Качество: BDRip 720p |IDE|
Формат: MKV
Видео кодек: H.264
Аудио кодек: AC3, DTS
Видео: H.264, 1280x536 (2.40:1), 23.976 fps, ~5104 kbps, 0.311 bit/pixel
Аудио:
  • русская |Blu-ray CEE|: DTS, 48 kHz, 6 ch, 768 kbps
  • английская |Оригинал|: DTS, 48 kHz, 6 ch, 1509 kbps
    английская |Комментарий Тима Стори|: AC3, 48 kHz, 2 ch, 192 kbps
-Сэмпл \ Кинопоиск-

Скриншоты

Media Info

Код:
General
Unique ID                      : 205400197159380402056133063272440529972 (0x9A86A3976B68EF9B84D31F9DE7980434)
Complete name                  : E:\Video\HD\Movies (HD)\Ride Along 2 (2016) (BDRip 720p).mkv
Format                         : Matroska
Format version                 : Version 4 / Version 2
File size                      : 5.48 GiB
Duration                       : 1h 41mn
Overall bit rate               : 7 727 Kbps
Encoded date                   : UTC 2016-09-07 12:53:49
Writing application            : mkvmerge v8.8.0 ('Wind at my back') 32bit
Writing library                : libebml v1.3.3 + libmatroska v1.4.4
DURATION                       : 01:36:06.928000000
NUMBER_OF_FRAMES               : 2310
NUMBER_OF_BYTES                : 73280
_STATISTICS_WRITING_APP        : mkvmerge v8.8.0 ('Wind at my back') 32bit
_STATISTICS_WRITING_DATE_UTC   : 2016-09-07 12:53:49
_STATISTICS_TAGS               : BPS DURATION NUMBER_OF_FRAMES NUMBER_OF_BYTES
Video
ID                             : 1
Format                         : AVC
Format/Info                    : Advanced Video Codec
Format profile                 : High@L4.1
Format settings, CABAC         : Yes
Format settings, ReFrames      : 12 frames
Codec ID                       : V_MPEG4/ISO/AVC
Duration                       : 1h 41mn
Bit rate                       : 5 104 Kbps
Width                          : 1 280 pixels
Height                         : 534 pixels
Display aspect ratio           : 2.40:1
Frame rate mode                : Constant
Frame rate                     : 23.976 fps
Color space                    : YUV
Chroma subsampling             : 4:2:0
Bit depth                      : 8 bits
Scan type                      : Progressive
Bits/(Pixel*Frame)             : 0.311
Stream size                    : 3.62 GiB (66%)
Writing library                : x264 core 148 r2692kMod 64f4e24
Encoding settings              : cabac=1 / ref=12 / deblock=1:-3:-3 / analyse=0x3:0x133 / me=umh / subme=10 / psy=1 / fade_compensate=0.00 / psy_rd=1.00:0.00 / mixed_ref=1 / me_range=32 / chroma_me=1 / trellis=2 / 8x8dct=1 / cqm=0 / deadzone=21,11 / fast_pskip=1 / chroma_qp_offset=-2 / threads=8 / lookahead_threads=2 / sliced_threads=0 / nr=0 / decimate=1 / interlaced=0 / bluray_compat=0 / constrained_intra=0 / fgo=0 / bframes=10 / b_pyramid=2 / b_adapt=2 / b_bias=0 / direct=3 / weightb=1 / open_gop=0 / weightp=2 / keyint=250 / keyint_min=23 / scenecut=40 / intra_refresh=0 / rc_lookahead=150 / rc=crf / mbtree=0 / crf=15.0000 / qcomp=0.65 / qpmin=0 / qpmax=69 / qpstep=4 / vbv_maxrate=50000 / vbv_bufsize=62500 / crf_max=0.0 / nal_hrd=none / filler=0 / ip_ratio=1.30 / pb_ratio=1.30 / aq=3:0.65 / zones=26965,27089,crf=14.5
Language                       : English
Default                        : Yes
Forced                         : No
DURATION                       : 01:41:30.043000000
NUMBER_OF_FRAMES               : 146015
NUMBER_OF_BYTES                : 3995412790
_STATISTICS_WRITING_APP        : mkvmerge v8.8.0 ('Wind at my back') 32bit
_STATISTICS_WRITING_DATE_UTC   : 2016-09-07 12:53:49
_STATISTICS_TAGS               : BPS DURATION NUMBER_OF_FRAMES NUMBER_OF_BYTES
Audio #1
ID                             : 2
Format                         : DTS
Format/Info                    : Digital Theater Systems
Mode                           : 16
Format settings, Endianness    : Big
Codec ID                       : A_DTS
Duration                       : 1h 41mn
Bit rate mode                  : Constant
Bit rate                       : 768 Kbps
Channel(s)                     : 6 channels
Channel positions              : Front: L C R, Side: L R, LFE
Sampling rate                  : 48.0 KHz
Bit depth                      : 24 bits
Compression mode               : Lossy
Stream size                    : 558 MiB (10%)
Title                          : DUB (Blu-Ray CEE / UPI)
Language                       : Russian
Default                        : Yes
Forced                         : No
Audio #2
ID                             : 3
Format                         : DTS
Format/Info                    : Digital Theater Systems
Mode                           : 16
Format settings, Endianness    : Big
Codec ID                       : A_DTS
Duration                       : 1h 41mn
Bit rate mode                  : Constant
Bit rate                       : 1 509 Kbps
Channel(s)                     : 6 channels
Channel positions              : Front: L C R, Side: L R, LFE
Sampling rate                  : 48.0 KHz
Bit depth                      : 24 bits
Compression mode               : Lossy
Stream size                    : 1.07 GiB (20%)
Title                          : Original
Language                       : English
Default                        : No
Forced                         : No
Audio #3
ID                             : 4
Format                         : AC-3
Format/Info                    : Audio Coding 3
Format profile                 : Dolby Digital
Mode extension                 : CM (complete main)
Format settings, Endianness    : Big
Codec ID                       : A_AC3
Duration                       : 1h 41mn
Bit rate mode                  : Constant
Bit rate                       : 192 Kbps
Channel(s)                     : 2 channels
Channel positions              : Front: L R
Sampling rate                  : 48.0 KHz
Bit depth                      : 16 bits
Compression mode               : Lossy
Stream size                    : 139 MiB (2%)
Title                          : Commentary with Director Tim Story
Language                       : English
Default                        : No
Forced                         : No
Text #1
ID                             : 5
Format                         : UTF-8
Codec ID                       : S_TEXT/UTF8
Codec ID/Info                  : UTF-8 Plain Text
Title                          : Forced
Language                       : Russian
Default                        : Yes
Forced                         : No
Text #2
ID                             : 6
Format                         : UTF-8
Codec ID                       : S_TEXT/UTF8
Codec ID/Info                  : UTF-8 Plain Text
Title                          : Full
Language                       : Russian
Default                        : No
Forced                         : No
Text #3
ID                             : 7
Format                         : UTF-8
Codec ID                       : S_TEXT/UTF8
Codec ID/Info                  : UTF-8 Plain Text
Title                          : Full
Language                       : Ukrainian
Default                        : No
Forced                         : No
Text #4
ID                             : 8
Format                         : UTF-8
Codec ID                       : S_TEXT/UTF8
Codec ID/Info                  : UTF-8 Plain Text
Title                          : Full
Language                       : English
Default                        : No
Forced                         : No
Text #5
ID                             : 9
Format                         : UTF-8
Codec ID                       : S_TEXT/UTF8
Codec ID/Info                  : UTF-8 Plain Text
Title                          : SDH
Language                       : English
Default                        : No
Forced                         : No
Menu
00:00:00.000                   : en:Chapter 1
00:03:29.584                   : en:Chapter 2
00:10:26.751                   : en:Chapter 3
00:14:00.089                   : en:Chapter 4
00:17:21.040                   : en:Chapter 5
00:22:33.269                   : en:Chapter 6
00:27:48.876                   : en:Chapter 7
00:34:33.530                   : en:Chapter 8
00:39:25.905                   : en:Chapter 9
00:42:26.002                   : en:Chapter 10
00:46:06.013                   : en:Chapter 11
00:50:51.173                   : en:Chapter 12
00:56:40.689                   : en:Chapter 13
01:00:04.726                   : en:Chapter 14
01:06:57.680                   : en:Chapter 15
01:13:09.051                   : en:Chapter 16
01:19:35.396                   : en:Chapter 17
01:23:06.732                   : en:Chapter 18
01:31:19.766                   : en:Chapter 19
01:36:58.938                   : en:Chapter 20
-

_________________
Показать сообщения:    

Текущее время: Сегодня 22:26

Часовой пояс: GMT



Вы не можете начинать темы
Вы не можете отвечать на сообщения
Вы не можете редактировать свои сообщения
Вы не можете удалять свои сообщения
Вы не можете голосовать в опросах
Вы не можете прикреплять файлы к сообщениям
Вы не можете скачивать файлы