Ивановский Торрент трекер
Яндекс.Погода
 

[Цитировать]
димитри37

Миссия в Кабуле
Жанр: история, детектив
Год выпуска: 1970
Продолжительность: 01:02:48 + 01:04:55
Режиссёр: Леонид Квинихидзе
В ролях: Олег Жаков, Ирина Мирошниченко, Глеб Стриженов, Эммануил Виторган, Олег Видов, Михаил Глузский, Александр Демьяненко, Владимир Заманский, Владимир Зельдин, Отар Коберидзе, Альгимантас Масюлис, Олег Стриженов, Лаймонас Норейка, Елена Добронравова, Владимир Этуш, Ринат Тазетдинов, Ольга Лебзак, Алла Евдокимова, Владимир Протасенко, Геннадий Нилов, Раднэр Муратов. Текст читает Ефим Копелян
Описание: Двухсерийный остросюжетный фильм о становлении молодой советской дипломатии и борьбе миссии в Кабуле с внутренней реакцией и представителями западных держав за подписание Договора о сотрудничестве.
В 1919 году Афганистан первым среди всех государств признал Советскую республику и предложил подписать мирный договор. В. И. Ленин и эмир Афганистана Аманулла-хан обменялись дружественными посланиями.
В Кабул была направлена советская дипломатическая миссия. Дружеские отношения между Афганистаном и молодой Советской республикой стали реальной угрозой для традиционного английского владычества на Востоке. Трудная борьба предстояла дипломатам в Кабуле. Во что бы то ни стало, несмотря на возможные провокации, они обязаны были укреплять дружеские отношения с Афганистаном…
Доп. информация:Премьера: 27 сентября 1971

Качество видео: DVDRip-AVC
Формат видео: MKV
Видео: 720x436@1024x436 (2,35:1), 25 fps, AVC (H.264), 2255 kbps
Аудио: 48 kHz, АC-3, 2 ch, 192 kbp

MediaInfo

1-я серия

Общее
Уникальный идентификатор : 185603165333999905448214789173816519437 (0x8BA1DE9046B6E9C582DF5E24D88EEB0D)
Полное имя : D:\Фильмы\Mission in Kabul [DVD9]\01. Миссия в Кабуле (1970).mkv
Формат : Matroska
Версия формата : Version 4 / Version 2
Размер файла : 1,07 Гбайт
Продолжительность : 1 ч. 2 м.
Общий поток : 2449 Кбит/сек
Дата кодирования : UTC 2013-05-14 09:00:39
Программа кодирования : mkvmerge v6.1.0 ('Old Devil') built on Mar 2 2013 14:32:37
Библиотека кодирования : libebml v1.3.0 + libmatroska v1.4.0
Видео
Идентификатор : 1
Формат : AVC
Формат/Информация : Advanced Video Codec
Профиль формата : High@L4.1
Параметр CABAC формата : Да
Параметр ReFrames формата : 6 кадров
Идентификатор кодека : V_MPEG4/ISO/AVC
Продолжительность : 1 ч. 2 м.
Битрейт : 2255 Кбит/сек
Ширина : 720 пикселей
Высота : 436 пикселей
Соотношение сторон : 2,35:1
Соотношение сторон в оригинале : 2,35:1
Частота кадров : 25,000 кадров/сек
Цветовое пространство : YUV
Субдискретизация насыщенности : 4:2:0
Битовая глубина : 8 бит
Тип развёртки : Прогрессивная
Бит/(Пиксели*Кадры) : 0.287
Размер потока : 992 Мбайт (90%)
Библиотека кодирования : x264 core 130 r2273 b3065e6
Настройки программы : cabac=1 / ref=6 / deblock=1:-1:-1 / analyse=0x3:0x133 / me=umh / subme=9 / psy=1 / psy_rd=1.00:0.00 / mixed_ref=1 / me_range=32 / chroma_me=1 / trellis=2 / 8x8dct=1 / cqm=0 / deadzone=21,11 / fast_pskip=1 / chroma_qp_offset=-2 / threads=3 / lookahead_threads=1 / sliced_threads=0 / nr=0 / decimate=1 / interlaced=0 / bluray_compat=0 / constrained_intra=0 / bframes=9 / b_pyramid=2 / b_adapt=2 / b_bias=0 / direct=3 / weightb=1 / open_gop=0 / weightp=2 / keyint=250 / keyint_min=25 / scenecut=40 / intra_refresh=0 / rc_lookahead=60 / rc=2pass / mbtree=1 / bitrate=2255 / ratetol=1.0 / qcomp=0.60 / qpmin=0 / qpmax=69 / qpstep=4 / cplxblur=20.0 / qblur=0.5 / ip_ratio=1.40 / aq=1:1.00
Язык : English
Default : Да
Forced : Нет
Аудио
Идентификатор : 2
Формат : AC-3
Формат/Информация : Audio Coding 3
Расширение режима : CM (complete main)
Параметр Endianness формата : Big
Идентификатор кодека : A_AC3
Продолжительность : 1 ч. 2 м.
Вид битрейта : Постоянный
Битрейт : 192 Кбит/сек
Каналы : 2 канала
Расположение каналов : Front: L R
Частота : 48,0 КГц
Битовая глубина : 16 бит
Метод сжатия : С потерями
Размер потока : 86,3 Мбайт (8%)
Default : Да
Forced : Нет

2-я серия

Общее
Уникальный идентификатор : 200543503294226720949589670270822482870 (0x96DF4618B7D0951ABC64F82EACAF83B6)
Полное имя : D:\Фильмы\Mission in Kabul [DVD9]\02. Миссия в Кабуле (1970).mkv
Формат : Matroska
Версия формата : Version 4 / Version 2
Размер файла : 1,11 Гбайт
Продолжительность : 1 ч. 4 м.
Общий поток : 2449 Кбит/сек
Дата кодирования : UTC 2013-05-14 18:05:20
Программа кодирования : mkvmerge v6.1.0 ('Old Devil') built on Mar 2 2013 14:32:37
Библиотека кодирования : libebml v1.3.0 + libmatroska v1.4.0
Видео
Идентификатор : 1
Формат : AVC
Формат/Информация : Advanced Video Codec
Профиль формата : High@L4.1
Параметр CABAC формата : Да
Параметр ReFrames формата : 6 кадров
Идентификатор кодека : V_MPEG4/ISO/AVC
Продолжительность : 1 ч. 4 м.
Битрейт : 2255 Кбит/сек
Ширина : 720 пикселей
Высота : 436 пикселей
Соотношение сторон : 2,35:1
Соотношение сторон в оригинале : 2,35:1
Частота кадров : 25,000 кадров/сек
Цветовое пространство : YUV
Субдискретизация насыщенности : 4:2:0
Битовая глубина : 8 бит
Тип развёртки : Прогрессивная
Бит/(Пиксели*Кадры) : 0.287
Размер потока : 1,00 Гбайт (90%)
Библиотека кодирования : x264 core 130 r2273 b3065e6
Настройки программы : cabac=1 / ref=6 / deblock=1:-1:-1 / analyse=0x3:0x133 / me=umh / subme=9 / psy=1 / psy_rd=1.00:0.00 / mixed_ref=1 / me_range=32 / chroma_me=1 / trellis=2 / 8x8dct=1 / cqm=0 / deadzone=21,11 / fast_pskip=1 / chroma_qp_offset=-2 / threads=3 / lookahead_threads=1 / sliced_threads=0 / nr=0 / decimate=1 / interlaced=0 / bluray_compat=0 / constrained_intra=0 / bframes=9 / b_pyramid=2 / b_adapt=2 / b_bias=0 / direct=3 / weightb=1 / open_gop=0 / weightp=2 / keyint=250 / keyint_min=25 / scenecut=40 / intra_refresh=0 / rc_lookahead=60 / rc=2pass / mbtree=1 / bitrate=2255 / ratetol=1.0 / qcomp=0.60 / qpmin=0 / qpmax=69 / qpstep=4 / cplxblur=20.0 / qblur=0.5 / ip_ratio=1.40 / aq=1:1.00
Язык : English
Default : Да
Forced : Нет
Аудио
Идентификатор : 2
Формат : AC-3
Формат/Информация : Audio Coding 3
Расширение режима : CM (complete main)
Параметр Endianness формата : Big
Идентификатор кодека : A_AC3
Продолжительность : 1 ч. 4 м.
Вид битрейта : Постоянный
Битрейт : 192 Кбит/сек
Каналы : 2 канала
Расположение каналов : Front: L R
Частота : 48,0 КГц
Битовая глубина : 16 бит
Метод сжатия : С потерями
Размер потока : 89,2 Мбайт (8%)
Default : Да
Forced : Нет

Скриншоты

1-я серия

2-я серия

-
Показать сообщения:    

Текущее время: 24-Сен 00:36

Часовой пояс: UTC - 1


Вы не можете начинать темы
Вы не можете отвечать на сообщения
Вы не можете редактировать свои сообщения
Вы не можете удалять свои сообщения
Вы не можете голосовать в опросах
Вы не можете прикреплять файлы к сообщениям
Вы не можете скачивать файлы

!ВНИМАНИЕ!
Сайт не предоставляет электронные версии произведений, а занимается лишь коллекционированием и каталогизацией ссылок, присылаемых и публикуемых на форуме нашими читателями. Если вы являетесь правообладателем какого-либо представленного материала и не желаете, чтобы ссылка на него находилась в нашем каталоге, свяжитесь с нами, и мы незамедлительно удалим ее. Файлы для обмена на трекере предоставлены пользователями сайта, и администрация не несет ответственности за их содержание. Просьба не заливать файлы, защищенные авторскими правами, а также файлы нелегального содержания!