Важное объявление!
У Нас Все раздачи мультитрекерные, при нуле пиров в релизах, можете смело вставать на закачку!
 
Автор Сообщение

HUNTER

Стаж:
4 года 7 месяцев
Сообщений:
61614

Репутация: 101

[+] [-]
Вне форума [Профиль] [ЛС]

Миссис Чудо / Mrs. Miracle
Страна: США
Жанр: фэнтези, мелодрама, комедия
Год выпуска: 2009
Продолжительность: 01:32:11
Перевод: Профессиональный (многоголосый закадровый)
Cубтитры: русские, английские, французские, испанские
Оригинальная аудиодорожка: английский
Режиссер: Майкл Скотт / Michael Scott
В ролях: Дорис Робертс, Джеймс Ван Дер Бик, Эрин Карплак, Чела Хорсдэл, Далила Бела, Рикки Гань, Питер Грэхэм-ГодрэуОписание: Вдовец Сэт Вебстер ищет экономку для ухода за его недисциплинированными шестилетними мальчиками-близнецами. Но все его старания тщетны — дети «выживают» каждую вновь пришедшую экономку. Таинственным образом появляется «Миссис Чудо» и становится для этой семьи незаменимой няней, поваром, другом. .. и свахой.Бонусы: Трейлеры к фильмам и мультфильмам
Меню: Английское, статичное, не озвученное
Тип релиза: DVD5 (Custom)
Контейнер: DVD-Video
Видео: NTSC, 16:9, 720x480, 29,970 fps, ~4500 kb/s
Аудио 1: AC3, 2/0 (L,R) ch, 192 kbps (Rus)
Аудио 2: AC3, 3/2 (L,C,R,l,r) + LFE ch, 448 kbps (Eng)
Формат субтитров: prerendered (DVD/IDX+SUB)
DVDInfo
Title: Mrs. Miracle 2009 DVD5Size: 4.04 Gb ( 4 236 140,00 KBytes ) - DVD-5Enabled regions: 1, 2, 3, 4, 5, 6, 7, 8
VTS_01 : Play Length: 01:32:06 Video: NTSC 16:9 (720x480) VBR, Auto Letterboxed Audio: Russian (Dolby AC3, 2 ch) English (Dolby AC3, 5 ch) Subtitles: Russian English Francais Espanol
VTS_02 : Play Length: 00:02:27 Video: NTSC 16:9 (720x480) VBR, Auto Letterboxed Audio: English (Dolby AC3, 6 ch)
VTS_03 : Play Length: 00:01:41 Video: NTSC 16:9 (720x480) VBR, Auto Letterboxed Audio: English (Dolby AC3, 2 ch)
VTS_04 : Play Length: 00:02:43 Video: NTSC 4:3 (720x480) VBR Audio: English (Dolby AC3, 2 ch)
VTS_05 : Play Length: 00:02:14 Video: NTSC 16:9 (720x480) VBR, Auto Letterboxed Audio: English (Dolby AC3, 6 ch)
VTS_06 : Play Length: 00:02:19 Video: NTSC 16:9 (720x480) VBR, Auto Letterboxed Audio: English (Dolby AC3, 6 ch)
VTS_07 : Play Length: 00:02:12 Video: NTSC 16:9 (720x480) VBR, Auto Letterboxed Audio: English (Dolby AC3, 6 ch)
VTS_08 : Play Length: 00:01:33 Video: NTSC 16:9 (720x480) VBR, Auto Letterboxed Audio: English (Dolby AC3, 2 ch)
VTS_09 : Play Length: 00:01:40 Video: NTSC 16:9 (720x480) VBR, Auto Letterboxed Audio: English (Dolby AC3, 2 ch)
* Menus Information *
VIDEO_TS MenuVideo: NTSC 16:9 (720x480) VBR Auto Pan&ScanAudio: Not specified (Dolby AC3, 6 ch)English Language Unit : Title Menu
VTS_01 MenuVideo: NTSC 16:9 (720x480) VBR Auto Pan&ScanAudio: Not specified (Dolby AC3, 1 ch)English Language Unit : Root Menu Subpicture Menu Audio Menu Angle menu Chapter (PTT) Menu
VTS_02 MenuVideo: NTSC 4:3 (720x480) VBR Auto Pan&Scan, Auto LetterboxedEnglish Language Unit : Root Menu
VTS_03 MenuVideo: NTSC 4:3 (720x480) VBR Auto Pan&Scan, Auto LetterboxedEnglish Language Unit : Root Menu
VTS_04 MenuVideo: NTSC 4:3 (720x480) VBR Auto Pan&Scan, Auto LetterboxedEnglish Language Unit : Root Menu
VTS_05 MenuVideo: NTSC 4:3 (720x480) VBR Auto Pan&Scan, Auto LetterboxedLanguage Unit : Root Menu
VTS_06 MenuVideo: NTSC 4:3 (720x480) VBR Auto Pan&Scan, Auto LetterboxedLanguage Unit : Root Menu
VTS_07 MenuVideo: NTSC 4:3 (720x480) VBR Auto Pan&Scan, Auto LetterboxedLanguage Unit : Root Menu
VTS_08 MenuVideo: NTSC 4:3 (720x480) VBR Auto Pan&Scan, Auto LetterboxedLanguage Unit : Root Menu
VTS_09 MenuVideo: NTSC 4:3 (720x480) VBR Auto Pan&Scan, Auto LetterboxedLanguage Unit : Root Menu

MediaInfo

ОбщееПолное имя : D:\FILMS\Mrs. Miracle 2009 DVD5\VIDEO_TS\VTS_01_1.VOBФормат : MPEG-PSРазмер файла : 1024 МбайтПродолжительность : 27 м.Режим общего битрейта : ПеременныйОбщий поток : 5278 Кбит/сек
ВидеоИдентификатор : 224 (0xE0)Формат : MPEG VideoВерсия формата : Version 2Профиль формата : Main@MainПараметр BVOP формата : ДаПараметр матрицы формата : ВыборочнаяПараметр GOP формата : VariableПродолжительность : 27 м.Вид битрейта : ПеременныйБитрейт : 4533 Кбит/секМаксимальный битрейт : 9800 Кбит/секШирина : 720 пикселейВысота : 480 пикселейСоотношение сторон : 16:9Частота кадров : 23,976 кадра/секСтандарт вещания : NTSCЦветовое пространство : YUVСубдискретизация насыщенности : 4:2:0Битовая глубина : 8 битТип развёртки : ПрогрессивнаяПорядок развёртки : 2:3 PulldownМетод сжатия : С потерямиБит/(Пиксели*Кадры) : 0.547Временной код первого кадра : 00:59:58;00Оригинал временного кода : Group of pictures headerРазмер потока : 879 Мбайт (86%)
Аудио #1Идентификатор : 189 (0xBD)-128 (0x80)Формат : AC-3Формат/Информация : Audio Coding 3Расширение режима : CM (complete main)Параметр Endianness формата : BigРежим смешивания : DVD-VideoПродолжительность : 27 м.Вид битрейта : ПостоянныйБитрейт : 192 Кбит/секКаналы : 2 каналаРасположение каналов : Front: L RЧастота : 48,0 КГцБитовая глубина : 16 битМетод сжатия : С потерямиЗадержка видео : 2 мс.Размер потока : 37,2 Мбайт (4%)
Аудио #2Идентификатор : 189 (0xBD)-129 (0x81)Формат : AC-3Формат/Информация : Audio Coding 3Расширение режима : CM (complete main)Параметр Endianness формата : BigРежим смешивания : DVD-VideoПродолжительность : 27 м.Вид битрейта : ПостоянныйБитрейт : 448 Кбит/секКаналы : 5 каналовРасположение каналов : Front: L C R, Side: L RЧастота : 48,0 КГцБитовая глубина : 16 битМетод сжатия : С потерямиРазмер потока : 86,9 Мбайт (8%)
Текст #1Идентификатор : 189 (0xBD)-32 (0x20)Формат : RLEФормат/Информация : Run-length encodingРежим смешивания : DVD-VideoПродолжительность : 26 м.Задержка видео : 7 с. 307 мс.
Текст #2Идентификатор : 189 (0xBD)-35 (0x23)Формат : RLEФормат/Информация : Run-length encodingРежим смешивания : DVD-VideoПродолжительность : 26 м.Задержка видео : 7 с. 140 мс.
Текст #3Идентификатор : 189 (0xBD)-33 (0x21)Формат : RLEФормат/Информация : Run-length encodingРежим смешивания : DVD-Video
Текст #4Идентификатор : 189 (0xBD)-34 (0x22)Формат : RLEФормат/Информация : Run-length encodingРежим смешивания : DVD-Video
Меню

Скриншоты меню

Скриншоты


Информация по сборке

Диск собран из импортного DVD R1.
Добавлена русская аудиодорожка из этой раздачи (спасибо miha2154)
Русские субтитры из этой раздачи (спасибо djoni7)
Используемый софт:
PgcDemux (Разборка диска)
VirtualDub (Извлечение аудиодорожки из avi)
SubtitleWorkshop (редактирование субтитров)
Txt2Sup (конвертация текстовых субтитров в формат sup)
MuxMan (Сборка диска)
Adobe Photoshop (Редактирование пунктов меню)
DVDSubEdit (Редактирование подсветки пунктов меню)
DVD Remake Pro (редактирование навигации, реавторинг DVD)

_________________
Показать сообщения:    

Текущее время: Сегодня 17:48

Часовой пояс: GMT



Вы не можете начинать темы
Вы не можете отвечать на сообщения
Вы не можете редактировать свои сообщения
Вы не можете удалять свои сообщения
Вы не можете голосовать в опросах
Вы не можете прикреплять файлы к сообщениям
Вы не можете скачивать файлы
Наши партнеры: интернет магазин Ивановского трикотажа textilla.ru