Важное объявление!
У Нас Все раздачи мультитрекерные, при нуле пиров в релизах, можете смело вставать на закачку!
 
Автор Сообщение

HUNTER

Стаж:
4 года 7 месяцев
Сообщений:
61500

Репутация: 101

[+] [-]
Вне форума [Профиль] [ЛС]

Мир Юрского периода / Jurassic World
Страна: США, Китай
Жанр: фантастика, приключения, боевик
Год выпуска: 2015
Продолжительность: 02:04:21
Перевод: Профессиональный (дублированный)
Cубтитры: Russian, Ukrainian, English, English-SDH, Bulgarian, Czech, Finnish, French, Polish, Spanish, Swedish
Оригинальная аудиодорожка: английский-Режиссер: Колин Треворроу / Colin Trevorrow-В ролях: Крис Пратт, Брайс Даллас Ховард, Ник Дж. Робинсон, Тай Симпкинс, Винсент Д’Онофрио, Ирфан Кхан, Омар Си, Б.Д. Вонг, Джейк Джонсон, Джуди Грир-Описание: Тысячи людей спешат увидеть Мир Юрского периода, но безопасное на первый взгляд развлечение может обернуться угрозой для их жизней.-Релиз от: -Rip by CRiME-Качество видео: BDRip | Sample
Формат видео: MKV
Видео: 1280x640 at 23.976 fps, x264@L4.1, crf, ~10100 kbps avg
Аудио 1: Russian: 48 kHz, DTS, 3/2 (L,C,R,l,r) + LFE ch, ~768.00 kbps avg |Дубляж, BluRay EUR|
Аудио 2: English: 48 kHz, DTS, 3/2 (L,C,R,l,r) + LFE ch, ~1510.00 kbps avg-

Дополнительно

Цитата:
Цитата:

Сохранены оригинальные главы.
Encode from US Blu-ray which has better PQ than EUR Blu-ray
FillMargins and BalanceBorders were used to fix dirty lines on the Universal intro

MediaInfo

Код:
Format                      : Matroska
Format version              : Version 4 / Version 2
File size                   : 11.0 GiB
Duration                    : 2h 4mn
Overall bit rate            : 12.6 Mbps
Movie name                  : Release for HDCLUB
Encoded date                : UTC 2015-11-26 19:42:33
Writing application         : mkvmerge v5.9.0 ('On The Loose') built on Dec 23 2012 14:24:43
Writing library             : libebml v1.3.0 + libmatroska v1.4.0
Video
ID                          : 1
Format                      : AVC
Format/Info                 : Advanced Video Codec
Format profile              : High@L4.1
Format settings, CABAC      : Yes
Format settings, ReFrames   : 10 frames
Codec ID                    : V_MPEG4/ISO/AVC
Duration                    : 2h 4mn
Bit rate                    : 10.1 Mbps
Width                       : 1 280 pixels
Height                      : 640 pixels
Display aspect ratio        : 2.000
Frame rate mode             : Constant
Frame rate                  : 23.976 (24000/1001) fps
Color space                 : YUV
Chroma subsampling          : 4:2:0
Bit depth                   : 8 bits
Scan type                   : Progressive
Bits/(Pixel*Frame)          : 0.513
Stream size                 : 8.76 GiB (80%)
Writing library             : x264 core 148 r2638 7599210
Encoding settings           : cabac=1 / ref=10 / deblock=1:-3:-3 / analyse=0x3:0x133 / me=umh / subme=10 / psy=1 / psy_rd=1.05:0.00 / mixed_ref=1 / me_range=48 / chroma_me=1 / trellis=2 / 8x8dct=1 / cqm=0 / deadzone=21,11 / fast_pskip=0 / chroma_qp_offset=-2 / threads=6 / lookahead_threads=1 / sliced_threads=0 / nr=0 / decimate=0 / interlaced=0 / bluray_compat=0 / constrained_intra=0 / bframes=8 / b_pyramid=2 / b_adapt=2 / b_bias=0 / direct=3 / weightb=1 / open_gop=0 / weightp=2 / keyint=250 / keyint_min=24 / scenecut=40 / intra_refresh=0 / rc_lookahead=60 / rc=crf / mbtree=0 / crf=16.7 / qcomp=0.65 / qpmin=0 / qpmax=69 / qpstep=4 / vbv_maxrate=62500 / vbv_bufsize=78125 / crf_max=0.0 / nal_hrd=none / filler=0 / ip_ratio=1.25 / pb_ratio=1.15 / aq=3:0.63 / zones=77,1215,crf=15/6921,7110,crf=15.5/99331,99492,crf=15.7/101002,101039,crf=15.7/145192,145301,crf=15.5/145588,145668,crf=15.8/160757,160907,crf=15.8/166262,178896,crf=23
Language                    : English
Default                     : Yes
Forced                      : No
Audio #1
ID                          : 2
Format                      : DTS
Format/Info                 : Digital Theater Systems
Mode                        : 16
Format settings, Endianness : Big
Codec ID                    : A_DTS
Duration                    : 2h 4mn
Bit rate mode               : Constant
Bit rate                    : 768 Kbps
Channel(s)                  : 6 channels
Channel positions           : Front: L C R, Side: L R, LFE
Sampling rate               : 48.0 KHz
Frame rate                  : 93.750 fps (512 spf)
Bit depth                   : 24 bits
Compression mode            : Lossy
Stream size                 : 684 MiB (6%)
Title                       : Blu-Ray CEE
Language                    : Russian
Default                     : Yes
Forced                      : No
Audio #2
ID                          : 3
Format                      : DTS
Format/Info                 : Digital Theater Systems
Mode                        : 16
Format settings, Endianness : Big
Codec ID                    : A_DTS
Duration                    : 2h 4mn
Bit rate mode               : Constant
Bit rate                    : 1 510 Kbps
Channel(s)                  : 6 channels
Channel positions           : Front: L C R, Side: L R, LFE
Sampling rate               : 48.0 KHz
Frame rate                  : 93.750 fps (512 spf)
Bit depth                   : 24 bits
Compression mode            : Lossy
Stream size                 : 1.31 GiB (12%)
Language                    : English
Default                     : No
Forced                      : No
Text #1
ID                          : 4
Format                      : UTF-8
Codec ID                    : S_TEXT/UTF8
Codec ID/Info               : UTF-8 Plain Text
Title                       : Forced
Language                    : Russian
Default                     : Yes
Forced                      : No
Text #2
ID                          : 5
Format                      : UTF-8
Codec ID                    : S_TEXT/UTF8
Codec ID/Info               : UTF-8 Plain Text
Title                       : Full
Language                    : Russian
Default                     : No
Forced                      : No
Text #3
ID                          : 6
Format                      : UTF-8
Codec ID                    : S_TEXT/UTF8
Codec ID/Info               : UTF-8 Plain Text
Title                       : Forced
Language                    : Ukrainian
Default                     : No
Forced                      : No
Text #4
ID                          : 7
Format                      : UTF-8
Codec ID                    : S_TEXT/UTF8
Codec ID/Info               : UTF-8 Plain Text
Title                       : Full
Language                    : Ukrainian
Default                     : No
Forced                      : No
Text #5
ID                          : 8
Format                      : UTF-8
Codec ID                    : S_TEXT/UTF8
Codec ID/Info               : UTF-8 Plain Text
Language                    : English
Default                     : No
Forced                      : No
Text #6
ID                          : 9
Format                      : UTF-8
Codec ID                    : S_TEXT/UTF8
Codec ID/Info               : UTF-8 Plain Text
Title                       : SDH
Language                    : English
Default                     : No
Forced                      : No
Text #7
ID                          : 10
Format                      : UTF-8
Codec ID                    : S_TEXT/UTF8
Codec ID/Info               : UTF-8 Plain Text
Language                    : Czech
Default                     : No
Forced                      : No
Text #8
ID                          : 11
Format                      : UTF-8
Codec ID                    : S_TEXT/UTF8
Codec ID/Info               : UTF-8 Plain Text
Language                    : Finnish
Default                     : No
Forced                      : No
Text #9
ID                          : 12
Format                      : UTF-8
Codec ID                    : S_TEXT/UTF8
Codec ID/Info               : UTF-8 Plain Text
Language                    : French
Default                     : No
Forced                      : No
Text #10
ID                          : 13
Format                      : UTF-8
Codec ID                    : S_TEXT/UTF8
Codec ID/Info               : UTF-8 Plain Text
Language                    : Polish
Default                     : No
Forced                      : No
Text #11
ID                          : 14
Format                      : UTF-8
Codec ID                    : S_TEXT/UTF8
Codec ID/Info               : UTF-8 Plain Text
Language                    : Spanish
Default                     : No
Forced                      : No
Text #12
ID                          : 15
Format                      : UTF-8
Codec ID                    : S_TEXT/UTF8
Codec ID/Info               : UTF-8 Plain Text
Language                    : Swedish
Default                     : No
Forced                      : No
Text #13
ID                          : 16
Format                      : UTF-8
Codec ID                    : S_TEXT/UTF8
Codec ID/Info               : UTF-8 Plain Text
Language                    : Bulgarian
Default                     : No
Forced                      : No
Menu
00:00:00.000                : en:00:00:00.000
00:06:59.169                : en:00:06:59.169
00:11:01.828                : en:00:11:01.828
00:18:28.441                : en:00:18:28.441
00:25:34.867                : en:00:25:34.867
00:31:20.837                : en:00:31:20.837
00:39:23.861                : en:00:39:23.861
00:44:07.854                : en:00:44:07.854
00:48:57.226                : en:00:48:57.226
00:55:51.056                : en:00:55:51.056
01:01:21.344                : en:01:01:21.344
01:09:50.561                : en:01:09:50.561
01:15:25.479                : en:01:15:25.479
01:23:51.860                : en:01:23:51.860
01:30:14.701                : en:01:30:14.701
01:36:45.425                : en:01:36:45.425
01:41:15.653                : en:01:41:15.653
01:47:35.282                : en:01:47:35.282
01:53:06.029                : en:01:53:06.029
01:55:37.556                : en:01:55:37.556

Скриншоты


_________________
Показать сообщения:    

Текущее время: Сегодня 16:13

Часовой пояс: GMT



Вы не можете начинать темы
Вы не можете отвечать на сообщения
Вы не можете редактировать свои сообщения
Вы не можете удалять свои сообщения
Вы не можете голосовать в опросах
Вы не можете прикреплять файлы к сообщениям
Вы не можете скачивать файлы
Наши партнеры: интернет магазин Ивановского трикотажа textilla.ru