Мир в одной капле / Rain drop water is adventure [1-26 из 26] (Энрико Увиеда) [2002, Познавательный мультсериал, SATRip] :: Ивановский Торрент трекер
Важное объявление!
У Нас Все раздачи мультитрекерные, при нуле пиров в релизах, можете смело вставать на закачку!
 
Автор Сообщение

HUNTER

Стаж:
4 года 11 месяцев
Сообщений:
66045

Репутация: 101

[+] [-]
Вне форума [Профиль] [ЛС]

Мир в одной капле / Rain drop water is adventure---
Год выпуска: 2002
Страна: Испания
Жанр: Познавательный мультсериал
Продолжительность: 26 ~00:25:00
Перевод: Профессиональный (дублированный)
Продюсер: Enrique Uviedo
Композитор: Энрике Мурильо
Режиссёр: Энрико Увиеда / Enrique Uvieda--Описание: Маленькая задорная капелька путешествует по планете; вместе с ней вы узнаете много нового и интересного о воде и природе в целом. Оказывается, с появлением воды на нашей планете зародилась и стала развиваться жизнь. Вы узнаете о том, какую важную роль вода играет в жизни человека, как образуются облака и осадки, подземные реки и гейзеры, что такое синтез воды и парниковый эффект, откуда берется радуга на небе. Удивительная капелька и ее друзья откроют вам все секреты фантастического мира воды-- --Качество: SATRip
Формат: AVI
Видео кодек: DivX
Аудио кодек: MP3
Видео: DivX 5 704x528 25.00fps Bit rate 1498Kbps bits/pixel 0.161
Аудио: MPEG Audio Layer 3 48000Hz stereo 192kbps-- --

Список серий

Список серий:
01.День рождения капельки / Raindrop’s birth
02.Выше облаков / The cloud castle
03.Волшебная формула / Welcome Mr. Hydrogen
04.Подземный мир / Raindrop the builder
05.Ледяное королевство / Frosty the snow lord
06.Загадка реки / When river flow
07.Навстречу морю / Oceanland
08.Большие неприятности / Flu gets in trouble
09.В поисках миражей / What a mirage
10.Лесная история / Emergency in the forest
11.День без воды / Home sweet home
12.Песня дождя / Oh, heavens
13.Тайны воды / Dirty face
14. Не званные гости / A world in danger
15.В гостях у электричества / And the light came back
16.Опасная находка / The treasures of the sea
17.В городе Минерал / Superdrop
18.Блестящая идея / Salty Salty Water
19.Куда течет вода / Let’s drink
20.Охотники за микробами / We’ll drink raindrop
21.Теплый источник / The water bar
22.Невероятные перемены / The end of the world
23.Духи ледников / Frosty’s world
24.Похититель овощей / Getting back to the Roots
25.Храбрые вихри / What Phenomenona the are
26.Лучшие друзья / Home sweet home 2

отчет MediaInfo

Код: copyText_writeLink('this.parentNode.parentNode.nextSibling.nextSibling'); Общее
Полное имя : D:\Мир в одной капле\01.День рождения капельки.avi
Формат : AVI
Формат/Информация : Audio Video Interleave
Размер файла : 305 Мбайт
Продолжительность : 25 м.
Общий поток : 1699 Кбит/сек
Библиотека кодирования : VirtualDub build 32842/release
Видео
Идентификатор : 0
Формат : MPEG-4 Visual
Параметр BVOP формата : 1
Параметр QPel формата : Нет
Параметр GMC формата : Без точки перехода
Параметр матрицы формата : Default (H.263)
Режим смешивания : Сжатый битовый поток
Идентификатор кодека : DX50
Идентификатор кодека/Подсказка : DivX 5
Продолжительность : 25 м.
Битрейт : 1498 Кбит/сек
Ширина : 704 пикселя
Высота : 528 пикселей
Соотношение сторон : 4:3
Частота кадров : 25,000 кадров/сек
Цветовое пространство : YUV
Субдискретизация насыщенности : 4:2:0
Битовая глубина : 8 бит
Тип развёртки : Прогрессивная
Метод сжатия : С потерями
Бит/(Пиксели*Кадры) : 0.161
Размер потока : 269 Мбайт (88%)
Библиотека кодирования : DivX 6.1.0 (UTC 2005-12-12)
Аудио
Идентификатор : 1
Формат : MPEG Audio
Версия формата : Version 1
Профиль формата : Layer 3
Режим : Joint stereo
Идентификатор кодека : 55
Идентификатор кодека/Подсказка : MP3
Продолжительность : 25 м.
Вид битрейта : Постоянный
Битрейт : 192 Кбит/сек
Каналы : 2 канала
Частота : 48,0 КГц
Метод сжатия : С потерями
Размер потока : 34,4 Мбайт (11%)
Выравнивание : Разделение по промежуткам
Продолжительность промежутка : 40 мс. (1,00 видеокадр)
Время предзагрузки промежутка : 500 мс.
--

_________________
Показать сообщения:    

Текущее время: Сегодня 19:15

Часовой пояс: GMT



Вы не можете начинать темы
Вы не можете отвечать на сообщения
Вы не можете редактировать свои сообщения
Вы не можете удалять свои сообщения
Вы не можете голосовать в опросах
Вы не можете прикреплять файлы к сообщениям
Вы не можете скачивать файлы